<?xml version="1.0" standalone="no"?>
<!DOCTYPE svg PUBLIC "-//W3C//DTD SVG 1.1//EN" "http://www.w3.org/Graphics/SVG/1.1/DTD/svg11.dtd" >
<svg xmlns="http://www.w3.org/2000/svg" xmlns:xlink="http://www.w3.org/1999/xlink" version="1.1">
<metadata>
Created by FontForge 20170731 at Mon Nov  7 12:43:19 2022
 By Aleksey,,,
Copyright 2022 The Unbounded Project Authors (https://github.com/googlefonts/unbounded)
</metadata>
<defs>
<font id="Unbounded-Black" horiz-adv-x="0" >
  <font-face 
    font-family="Unbounded Black"
    font-weight="900"
    font-stretch="normal"
    units-per-em="1000"
    panose-1="0 0 0 0 0 0 0 0 0 0"
    ascent="800"
    descent="-200"
    x-height="575"
    cap-height="750"
    bbox="-331 -342 1926 1262"
    underline-thickness="50"
    underline-position="-175"
    unicode-range="U+0020-FB02"
  />
<missing-glyph horiz-adv-x="876" 
d="M60 750h248v-750h-248v750zM568 750h248v-750h-248v750zM186 750h473v-220h-473v220zM186 220h473v-220h-473v220z" />
    <glyph glyph-name="fi" unicode="fi" horiz-adv-x="966" 
d="M485 602q-52 0 -72.5 -16.5t-20.5 -50.5v-535h-254v515q0 91 37 151.5t107.5 91t171.5 30.5q38 0 69.5 -5.5t65.5 -16.5v-182q-25 8 -50.5 13t-53.5 5zM25 337v185h552v-185h-552zM664 587l127 -26l127 26v-587h-254v587zM791 617q-64 0 -103 31t-39 85t39 85t103 31
q65 0 103.5 -31t38.5 -85t-38.5 -85t-103.5 -31z" />
    <glyph glyph-name="fl" unicode="fl" horiz-adv-x="966" 
d="M485 602q-52 0 -72.5 -16.5t-20.5 -50.5v-535h-254v515q0 91 37 151.5t107.5 91t171.5 30.5q38 0 69.5 -5.5t65.5 -16.5v-182q-25 8 -50.5 13t-53.5 5zM25 337v185h552v-185h-552zM664 770h254v-770h-254v770z" />
    <glyph glyph-name="f_f" unicode="ff" horiz-adv-x="1115" 
d="M485 602q-52 0 -72.5 -16.5t-20.5 -50.5v-535h-254v515q0 91 37 151.5t107.5 91t171.5 30.5q38 0 69.5 -5.5t65.5 -16.5v-182q-25 8 -50.5 13t-53.5 5zM25 337v185h552v-185h-552zM1006 602q-52 0 -72.5 -16.5t-20.5 -50.5v-535h-254v515q0 91 37 151.5t107.5 91
t171.5 30.5q38 0 69.5 -5.5t65.5 -16.5v-182q-25 8 -50.5 13t-53.5 5zM546 337v185h552v-185h-552z" />
    <glyph glyph-name="f_f_i" unicode="ffi" horiz-adv-x="1461" 
d="M485 602q-52 0 -72.5 -16.5t-20.5 -50.5v-535h-254v515q0 91 37 151.5t107.5 91t171.5 30.5q38 0 69.5 -5.5t65.5 -16.5v-182q-25 8 -50.5 13t-53.5 5zM25 337v185h552v-185h-552zM1006 602q-52 0 -72.5 -16.5t-20.5 -50.5v-535h-254v515q0 91 37 151.5t107.5 91
t171.5 30.5q38 0 69.5 -5.5t65.5 -16.5v-182q-25 8 -50.5 13t-53.5 5zM546 337v185h552v-185h-552zM1159 587l127 -26l127 26v-587h-254v587zM1286 617q-64 0 -103 31t-39 85t39 85t103 31q65 0 103.5 -31t38.5 -85t-38.5 -85t-103.5 -31z" />
    <glyph glyph-name="f_f_l" unicode="ffl" horiz-adv-x="1470" 
d="M485 602q-52 0 -72.5 -16.5t-20.5 -50.5v-535h-254v515q0 91 37 151.5t107.5 91t171.5 30.5q38 0 69.5 -5.5t65.5 -16.5v-182q-25 8 -50.5 13t-53.5 5zM25 337v185h552v-185h-552zM1006 602q-52 0 -72.5 -16.5t-20.5 -50.5v-535h-254v515q0 91 37 151.5t107.5 91
t171.5 30.5q38 0 69.5 -5.5t65.5 -16.5v-182q-25 8 -50.5 13t-53.5 5zM546 337v185h552v-185h-552zM1168 770h254v-770h-254v770z" />
    <glyph glyph-name="f_t.liga" unicode="ft" horiz-adv-x="1160" 
d="M488 612q-52 0 -72.5 -13.5t-20.5 -41.5v-557h-254v515q0 91 37 151.5t107.5 91t171.5 30.5q38 0 69.5 -5.5t65.5 -16.5v-162q-25 4 -50.5 6t-53.5 2zM28 350v195h552v-195h-552zM526 350v195h118l106 187h143v-177h225v-195h-225v-79q0 -55 21 -77.5t86 -22.5
q40 0 71.5 5.5t56.5 13.5v-190q-34 -10 -83.5 -17.5t-103.5 -7.5q-102 0 -169 30.5t-100 88.5t-33 138v108h-113z" />
    <glyph glyph-name="t_t.liga" unicode="tt" horiz-adv-x="1195" 
d="M6 390v109l113 57l111 176h143v-157h225v-185h-225v-109q0 -61 21 -85.5t86 -24.5q40 0 71.5 5.5t56.5 13.5v-183q-34 -10 -83.5 -17.5t-103.5 -7.5q-102 0 -169 30.5t-100 88.5t-33 138v151h-113zM566 390v185h228l-176 -116l172 273h143v-157h225v-185h-225v-109
q0 -61 21 -85.5t86 -24.5q40 0 71.5 5.5t56.5 13.5v-183q-34 -10 -83.5 -17.5t-103.5 -7.5q-102 0 -169 30.5t-100 88.5t-33 138v151h-113z" />
    <glyph glyph-name=".notdef" horiz-adv-x="876" 
d="M60 750h248v-750h-248v750zM568 750h248v-750h-248v750zM186 750h473v-220h-473v220zM186 220h473v-220h-473v220z" />
    <glyph glyph-name=".null" 
 />
    <glyph glyph-name="nonmarkingreturn" horiz-adv-x="333" 
 />
    <glyph glyph-name="space" unicode=" " horiz-adv-x="236" 
 />
    <glyph glyph-name="exclam" unicode="!" horiz-adv-x="352" 
d="M43 750h266l-43 -460h-180zM176 -12q-61 0 -98 34.5t-37 90.5t37 90.5t98 34.5t98 -34.5t37 -90.5t-37 -90.5t-98 -34.5z" />
    <glyph glyph-name="quotedbl" unicode="&#x22;" horiz-adv-x="562" 
d="M344 371l-51 379h242l-51 -379h-140zM78 371l-51 379h242l-51 -379h-140z" />
    <glyph glyph-name="numbersign" unicode="#" horiz-adv-x="877" 
d="M207 750h200l-88 -750h-200zM557 750h200l-88 -750h-200zM61 594h778v-170h-778v170zM37 326h778v-170h-778v170z" />
    <glyph glyph-name="dollar" unicode="$" horiz-adv-x="843" 
d="M430 -18q-116 0 -203.5 33t-136.5 93t-51 139h252q5 -36 42.5 -56.5t101.5 -20.5q57 0 88 12.5t31 39.5q0 14 -8.5 23t-28.5 15t-53 8l-119 9q-161 12 -232 75t-71 166q0 82 45.5 137.5t128 84t192.5 28.5q108 0 191 -31.5t132 -88t54 -132.5h-251q-4 27 -34.5 45.5
t-95.5 18.5q-51 0 -81 -11t-30 -37q0 -11 7 -20.5t25.5 -15t51.5 -8.5l134 -10q107 -8 171.5 -35t93.5 -73.5t29 -114.5q0 -82 -47 -143.5t-131 -95.5t-197 -34zM512 832v-914h-183v914h183z" />
    <glyph glyph-name="percent" unicode="%" horiz-adv-x="1349" 
d="M300 305q-83 0 -146 28.5t-98 80t-35 120.5q0 68 35 119t98 79.5t146 28.5q84 0 146.5 -28.5t97.5 -79.5t35 -119q0 -69 -35 -120.5t-97.5 -80t-146.5 -28.5zM300 447q40 0 62 22.5t22 63.5t-21.5 64t-61.5 23q-41 0 -62.5 -23t-21.5 -64t21.5 -63.5t61.5 -22.5z
M1047 -20q-83 0 -146 28.5t-98 80t-35 120.5q0 68 35 119t98 79.5t146 28.5q84 0 146.5 -28.5t97.5 -79.5t35 -119q0 -69 -35 -120.5t-97.5 -80t-146.5 -28.5zM1047 122q40 0 62 22.5t22 63.5t-21.5 64t-61.5 23q-41 0 -62.5 -23t-21.5 -64t21.5 -63.5t61.5 -22.5zM788 750
h181l-410 -750h-181z" />
    <glyph glyph-name="ampersand" unicode="&#x26;" horiz-adv-x="982" 
d="M790 529h-252q-3 27 -22.5 45.5t-57.5 18.5q-23 0 -37.5 -6t-21.5 -16t-7 -22q0 -11 6.5 -20.5t18.5 -20.5l584 -508h-312l-464 401q-38 33 -70 75t-32 92q0 59 36 104t108.5 70.5t179.5 25.5t182 -32t116 -86t45 -121zM697 426h261l-265 -286q-54 -59 -106 -94
t-111 -49.5t-136 -14.5q-98 0 -168.5 29.5t-108.5 80.5t-38 117q0 56 30.5 102.5t98 77t177.5 37.5l48 -98q-48 -8 -75 -30t-27 -54q0 -22 14 -39.5t37.5 -27t53.5 -9.5q65 0 106 23.5t69 57.5z" />
    <glyph glyph-name="quotesingle" unicode="'" horiz-adv-x="306" 
d="M27 750h252l-51 -379h-150z" />
    <glyph glyph-name="parenleft" unicode="(" horiz-adv-x="430" 
d="M219 750h194q-61 -118 -91 -224t-30 -209q0 -101 30 -207t91 -226h-194q-94 101 -141.5 207.5t-47.5 225.5t47.5 225.5t141.5 207.5z" />
    <glyph glyph-name="parenright" unicode=")" horiz-adv-x="430" 
d="M211 750q95 -101 142 -207.5t47 -225.5t-47 -225.5t-142 -207.5h-194q62 120 91.5 226t29.5 207q0 103 -29.5 209t-91.5 224h194z" />
    <glyph glyph-name="asterisk" unicode="*" horiz-adv-x="548" 
d="M199 770h151l-9 -138l128 51l46 -144l-133 -34l87 -105l-122 -89l-73 116l-73 -116l-122 89l87 105l-133 34l46 144l129 -51z" />
    <glyph glyph-name="plus" unicode="+" horiz-adv-x="620" 
d="M220 74v560h180v-560h-180zM30 264v180h560v-180h-560z" />
    <glyph glyph-name="comma" unicode="," horiz-adv-x="330" 
d="M34 -155l115 241l15 -94q-38 0 -69.5 18t-49.5 49t-18 68q0 38 18 68.5t49.5 48.5t69.5 18q39 0 70 -18t49 -49t18 -70q0 -35 -18 -75t-60 -101l-72 -104h-117z" />
    <glyph glyph-name="hyphen" unicode="-" horiz-adv-x="384" 
d="M51 447h282v-198h-282v198z" />
    <glyph glyph-name="period" unicode="." horiz-adv-x="328" 
d="M164 -12q-38 0 -69.5 18t-49.5 49.5t-18 69.5q0 39 18 70t49.5 49t69.5 18q39 0 70 -18t49 -49t18 -70q0 -38 -18 -69.5t-49 -49.5t-70 -18z" />
    <glyph glyph-name="slash" unicode="/" horiz-adv-x="485" 
d="M292 777h181l-280 -804h-181z" />
    <glyph glyph-name="zero" unicode="0" horiz-adv-x="946" 
d="M473 -18q-131 0 -229.5 49t-153 137.5t-54.5 206.5t54.5 206.5t153 137.5t229.5 49t229.5 -49t153 -137.5t54.5 -206.5t-54.5 -206.5t-153 -137.5t-229.5 -49zM474 190q85 0 132.5 48.5t47.5 136.5q0 89 -47.5 137t-133.5 48q-85 0 -133 -48t-48 -136q0 -89 48 -137.5
t134 -48.5z" />
    <glyph glyph-name="one" unicode="1" horiz-adv-x="552" 
d="M488 750v-750h-254v656l113 -105l-330 -58v197l283 60h188z" />
    <glyph glyph-name="two" unicode="2" horiz-adv-x="865" 
d="M28 472q7 92 62 158.5t146.5 102t205.5 35.5q109 0 190 -32.5t126 -90t45 -133.5q0 -59 -34 -110t-104 -98t-180 -93l-177 -74l-2 63h516v-200h-772v176l324 173q70 37 107 61t51.5 43.5t14.5 42.5q0 25 -13.5 42t-39.5 26.5t-62 9.5q-50 0 -81.5 -14t-47.5 -37t-19 -51
h-256z" />
    <glyph glyph-name="three" unicode="3" horiz-adv-x="862" 
d="M41 500q4 73 50.5 133.5t136 97.5t219.5 37q109 0 190 -27t126 -75t45 -112q0 -50 -30.5 -92t-98.5 -66.5t-180 -23.5v22q102 5 174.5 -12t111.5 -57t39 -105q0 -69 -46 -122.5t-134 -84.5t-214 -31q-122 0 -213 33t-141.5 94t-53.5 144h256q6 -37 41.5 -57t110.5 -20
q62 0 97 16.5t35 47.5q0 18 -10.5 30t-39 17.5t-81.5 5.5h-124v167h124q70 0 94.5 15t24.5 41q0 29 -30.5 43.5t-86.5 14.5q-65 0 -97.5 -19.5t-38.5 -54.5h-256z" />
    <glyph glyph-name="four" unicode="4" horiz-adv-x="899" 
d="M755 750v-750h-254v635h69l-363 -399v77h656v-185h-838v180l405 442h325z" />
    <glyph glyph-name="five" unicode="5" horiz-adv-x="828" 
d="M122 750h614v-185h-540l101 37l-41 -239h-59q21 39 58 70t92.5 49.5t131.5 18.5q95 0 165.5 -30.5t110 -85t39.5 -127.5q0 -81 -44.5 -143t-129.5 -97.5t-206 -35.5q-115 0 -201 33.5t-134.5 91t-52.5 127.5h255q6 -25 41 -41.5t92 -16.5q40 0 67.5 10t42 28.5t14.5 44.5
q0 24 -14.5 43t-42 29.5t-66.5 10.5q-32 0 -58.5 -6.5t-46 -17t-33.5 -22.5h-225z" />
    <glyph glyph-name="six" unicode="6" horiz-adv-x="878" 
d="M459 768q103 0 182.5 -31.5t128 -84.5t57.5 -119h-233q-13 24 -44 39.5t-84 15.5q-63 0 -105.5 -23t-64 -67.5t-21.5 -111.5q0 -76 23 -125t66 -73t103 -24q38 0 64 10t39.5 27t13.5 37q0 24 -13.5 40.5t-39 24.5t-62.5 8q-49 0 -96.5 -18.5t-94.5 -64.5l-80 52
q30 63 76.5 110.5t112 74.5t150.5 27q96 0 164 -31.5t104.5 -87t36.5 -126.5q0 -76 -43.5 -136t-127.5 -94.5t-209 -34.5q-144 0 -238 50.5t-140 139t-46 202.5t46.5 203t140.5 140t234 51z" />
    <glyph glyph-name="seven" unicode="7" horiz-adv-x="785" 
d="M111 0l409 620v-70h-504v200h742v-204l-346 -546h-301z" />
    <glyph glyph-name="eight" unicode="8" horiz-adv-x="918" 
d="M459 768q197 0 299.5 -58.5t102.5 -162.5q0 -91 -86.5 -135t-240.5 -37v19q163 15 254.5 -32t91.5 -152q0 -112 -107 -170t-314 -58t-314 58t-107 170q0 105 91.5 152t254.5 32v-19q-154 -7 -240.5 37t-86.5 135q0 104 102.5 162.5t299.5 58.5zM459 175q79 0 119.5 15.5
t40.5 44.5t-40.5 44t-119.5 15t-119.5 -15t-40.5 -44t40.5 -44.5t119.5 -15.5zM459 463q48 0 80.5 6.5t49 19t16.5 30.5q0 27 -37 41.5t-109 14.5t-109 -14.5t-37 -41.5q0 -18 16.5 -30.5t49 -19t80.5 -6.5z" />
    <glyph glyph-name="nine" unicode="9" horiz-adv-x="878" 
d="M419 -18q-103 0 -182.5 31.5t-127.5 85t-58 118.5h233q13 -24 44.5 -39.5t83.5 -15.5q64 0 106 23t63.5 68t21.5 111q0 76 -23 125t-66 73t-103 24q-38 0 -64 -10t-39.5 -26.5t-13.5 -37.5q0 -24 13.5 -40t39.5 -24.5t62 -8.5q50 0 97.5 18.5t93.5 64.5l80 -52
q-29 -62 -76 -110t-112 -75t-151 -27q-96 0 -164 31.5t-104 87t-37 126.5q1 76 44 136t127.5 94.5t208.5 34.5q144 0 238 -50.5t140.5 -139t45.5 -202.5q1 -114 -46 -203t-140.5 -140t-234.5 -51z" />
    <glyph glyph-name="colon" unicode=":" horiz-adv-x="350" 
d="M175 -12q-61 0 -98 34.5t-37 90.5t37 90.5t98 34.5t98 -34.5t37 -90.5t-37 -90.5t-98 -34.5zM175 310q-61 0 -98 34.5t-37 90.5t37 90.5t98 34.5t98 -34.5t37 -90.5t-37 -90.5t-98 -34.5z" />
    <glyph glyph-name="semicolon" unicode=";" horiz-adv-x="350" 
d="M175 310q-61 0 -98 34.5t-37 90.5t37 90.5t98 34.5t98 -34.5t37 -90.5t-37 -90.5t-98 -34.5zM45 -155l115 241l15 -98q-61 0 -98 34.5t-37 90.5t37 90.5t98 34.5t98 -34.5t37 -90.5q0 -28 -16.5 -67t-59.5 -99l-72 -102h-117z" />
    <glyph glyph-name="less" unicode="&#x3c;" horiz-adv-x="620" 
d="M588 459l-415 -135v60l415 -135v-190l-560 195v200l560 195v-190z" />
    <glyph glyph-name="equal" unicode="=" horiz-adv-x="620" 
d="M30 574h560v-180h-560v180zM30 314h560v-180h-560v180z" />
    <glyph glyph-name="greater" unicode="&#x3e;" horiz-adv-x="620" 
d="M32 459v190l560 -195v-200l-560 -195v190l415 135v-60z" />
    <glyph glyph-name="question" unicode="?" horiz-adv-x="739" 
d="M239 302q0 45 26.5 82.5t90.5 63.5l78 32q21 8 30.5 18t9.5 23q0 26 -24.5 40t-75.5 14q-53 0 -82.5 -21t-35.5 -59h-242q8 129 103.5 201t257.5 72q161 0 251.5 -62t90.5 -175q0 -57 -30 -99.5t-94 -69.5l-88 -37q-19 -8 -28.5 -19.5t-9.5 -28.5v-6h-223q-3 9 -4 17
t-1 14zM353 -12q-61 0 -98 34.5t-37 90.5t37 90.5t98 34.5t98 -34.5t37 -90.5t-37 -90.5t-98 -34.5z" />
    <glyph glyph-name="at" unicode="@" horiz-adv-x="1066" 
d="M627 327q-6 -99 -50.5 -158t-131.5 -59q-59 0 -103.5 27t-69 76t-24.5 114q0 66 24.5 114.5t69 75.5t103.5 27q60 0 99 -27t59.5 -76t23.5 -114zM473 327q0 -23 13 -37t35 -14q23 0 46.5 15t27.5 36q-4 21 -27.5 36t-46.5 15q-14 0 -25 -6.5t-17 -17.5t-6 -27zM1042 385
q0 -79 -37.5 -137.5t-106 -91t-162.5 -32.5h-121l-33 139l22 64l-22 62l23 141h233l-31 -203l37 -177l-78 62q46 0 78.5 21.5t50 60t17.5 90.5q0 79 -44 136t-124 88t-190 31q-119 0 -206.5 -39t-135 -111t-47.5 -171q0 -91 47 -158t133.5 -103t204.5 -36q58 0 120 9
t117 23.5t92 32.5v-119q-38 -17 -94 -30t-118.5 -20t-121.5 -7q-157 0 -273.5 50.5t-180 141.5t-63.5 214q0 98 37 178t106 137t166 88t217 31q149 0 258.5 -45t169.5 -127t60 -193z" />
    <glyph glyph-name="A" unicode="A" horiz-adv-x="996" 
d="M238 126v205h511v-205h-511zM670 750l329 -750h-275l-259 636h66l-259 -636h-275l329 750h344z" />
    <glyph glyph-name="B" unicode="B" horiz-adv-x="907" 
d="M604 364l20 46q85 -3 142 -27t85.5 -66.5t28.5 -101.5q0 -61 -27.5 -110t-83.5 -77t-140 -28h-589l57 385l-57 365h568q104 0 163 -48.5t59 -134.5q0 -49 -22 -92t-71.5 -72.5t-132.5 -38.5zM292 56l-98 115h353q33 0 52 17.5t19 47.5q0 27 -18.5 46t-54.5 19h-296v168
h258q26 0 43.5 16t17.5 41q0 23 -16 38t-45 15h-312l97 115l51 -309z" />
    <glyph glyph-name="C" unicode="C" horiz-adv-x="949" 
d="M922 325q-12 -103 -70.5 -180t-154.5 -120t-220 -43q-134 0 -234 49t-155.5 137.5t-55.5 206.5t55.5 206.5t155.5 137.5t234 49q124 0 220 -43t154.5 -120t70.5 -180h-259q-9 39 -33 66.5t-62.5 42t-90.5 14.5q-58 0 -99.5 -20.5t-63.5 -59.5t-22 -93t22 -92.5
t63.5 -59.5t99.5 -21q52 0 90.5 13.5t62.5 41t33 68.5h259z" />
    <glyph glyph-name="D" unicode="D" horiz-adv-x="946" 
d="M458 750q137 0 239.5 -46.5t159.5 -130.5t57 -198q0 -113 -57 -197.5t-159.5 -131t-239.5 -46.5h-398v750h398zM316 115l-116 115h278q55 0 94.5 17.5t60.5 50t21 77.5q0 46 -21 78t-60.5 49.5t-94.5 17.5h-278l116 115v-520z" />
    <glyph glyph-name="E" unicode="E" horiz-adv-x="812" 
d="M729 464v-178h-565v178h565zM341 375l-46 -279l-98 108h569v-204h-726l55 375l-55 375h721v-204h-564l98 108z" />
    <glyph glyph-name="F" unicode="F" horiz-adv-x="791" 
d="M186 457h548v-215h-548v215zM754 750v-215h-554l118 115v-650h-258v750h694z" />
    <glyph glyph-name="G" unicode="G" horiz-adv-x="976" 
d="M840 324q-4 -66 -27.5 -127.5t-69 -110t-115.5 -76.5t-166 -28q-87 0 -164.5 25t-137 74.5t-93.5 123t-34 170.5t34 170.5t95 123t141 74.5t173 25q130 0 222.5 -38.5t149 -105.5t74.5 -155h-259q-9 28 -35.5 47.5t-64.5 30t-85 10.5q-58 0 -100 -19.5t-64.5 -59.5
t-22.5 -103q0 -64 25.5 -106t73 -62t112.5 -20q63 0 112 14.5t79.5 45t37.5 77.5h109zM518 224v177h410v-401h-179l-38 287l45 -63h-238z" />
    <glyph glyph-name="H" unicode="H" horiz-adv-x="956" 
d="M60 750h258v-750h-258v750zM638 750h258v-750h-258v750zM206 497h533v-228h-533v228z" />
    <glyph glyph-name="I" unicode="I" horiz-adv-x="378" 
d="M60 750h258v-750h-258v750z" />
    <glyph glyph-name="J" unicode="J" horiz-adv-x="824" 
d="M13 376h252v-20q0 -77 28 -115.5t96 -38.5q66 0 96 35t30 97v416h258v-430q0 -101 -48 -177.5t-134 -118.5t-202 -42q-113 0 -197.5 44t-130.5 123.5t-46 184.5z" />
    <glyph glyph-name="K" unicode="K" horiz-adv-x="895" 
d="M60 0v750h256v-549l-65 55l373 494h270l-600 -750h-234zM420 345l190 149l294 -494h-292z" />
    <glyph glyph-name="L" unicode="L" horiz-adv-x="781" 
d="M318 750v-636l-116 116h558v-230h-700v750h258z" />
    <glyph glyph-name="M" unicode="M" horiz-adv-x="1275" 
d="M1215 750v-750h-245v653l47 -6l-252 -647h-255l-252 644l47 7v-651h-245v750h399l224 -611h-89l222 611h399z" />
    <glyph glyph-name="N" unicode="N" horiz-adv-x="995" 
d="M755 188l-70 -17v579h250v-750h-323l-372 578l70 17v-595h-250v750h333z" />
    <glyph glyph-name="O" unicode="O" horiz-adv-x="976" 
d="M488 -18q-137 0 -239.5 49t-159.5 137.5t-57 206.5t57 206.5t159.5 137.5t239.5 49t239.5 -49t159.5 -137.5t57 -206.5t-57 -206.5t-159.5 -137.5t-239.5 -49zM488 212q61 0 105 19.5t67.5 56t23.5 87.5t-23.5 87.5t-67.5 56t-105 19.5t-105 -19.5t-67.5 -56t-23.5 -87.5
t23.5 -87.5t67.5 -56t105 -19.5z" />
    <glyph glyph-name="P" unicode="P" horiz-adv-x="837" 
d="M497 750q102 0 174.5 -33.5t110.5 -95t38 -144.5t-38 -144.5t-110.5 -95t-174.5 -33.5h-317v201h300q38 0 59 19t21 53q0 35 -21 53.5t-59 18.5h-278l116 116v-665h-258v750h437z" />
    <glyph glyph-name="Q" unicode="Q" horiz-adv-x="977" 
d="M336 318h305l322 -377h-313zM488 -18q-137 0 -239.5 49t-159.5 137.5t-57 206.5t57 206.5t159.5 137.5t239.5 49t239.5 -49t159.5 -137.5t57 -206.5t-57 -206.5t-159.5 -137.5t-239.5 -49zM488 212q61 0 105 19.5t67.5 56t23.5 87.5t-23.5 87.5t-67.5 56t-105 19.5
t-105 -19.5t-67.5 -56t-23.5 -87.5t23.5 -87.5t67.5 -56t105 -19.5z" />
    <glyph glyph-name="R" unicode="R" horiz-adv-x="876" 
d="M238 429h252q38 0 59 18t21 52t-21 52t-59 18h-288l116 116v-685h-258v750h470q90 0 157.5 -31.5t105 -87.5t37.5 -132q0 -74 -37.5 -130.5t-105 -87.5t-157.5 -31h-292v179zM326 351h285l249 -351h-295z" />
    <glyph glyph-name="S" unicode="S" horiz-adv-x="870" 
d="M35 247h262q4 -22 23 -37.5t52 -24t79 -8.5q60 0 93.5 12t33.5 39q0 18 -19 30.5t-78 16.5l-124 8q-169 11 -244 72t-75 161q0 84 48 140t134.5 84t202.5 28q113 0 200.5 -31.5t139 -88.5t56.5 -133h-262q-3 18 -19.5 31t-46.5 20t-73 7q-55 0 -86.5 -11t-31.5 -36
q0 -17 18.5 -29t71.5 -16l140 -9q110 -7 178 -32.5t99.5 -70.5t31.5 -111q0 -83 -49 -145t-137.5 -96.5t-206.5 -34.5q-122 0 -214 33t-143.5 93t-53.5 139z" />
    <glyph glyph-name="T" unicode="T" horiz-adv-x="840" 
d="M291 639h258v-639h-258v639zM21 750h798v-230h-798v230z" />
    <glyph glyph-name="U" unicode="U" horiz-adv-x="889" 
d="M308 344q0 -41 14.5 -70.5t44.5 -45.5t77 -16q48 0 78 15.5t44 45.5t14 71v406h258v-420q0 -105 -49 -183t-137.5 -121.5t-207.5 -43.5q-118 0 -206.5 43.5t-138 121.5t-49.5 183v420h258v-406z" />
    <glyph glyph-name="V" unicode="V" horiz-adv-x="968" 
d="M540 118h-106l267 632h270l-340 -750h-294l-340 750h276z" />
    <glyph glyph-name="W" unicode="W" horiz-adv-x="1390" 
d="M1026 114l-75 -1l158 637h273l-211 -750h-332l-194 609h100l-194 -609h-332l-211 750h274l158 -636l-75 1l195 635h270z" />
    <glyph glyph-name="X" unicode="X" horiz-adv-x="922" 
d="M556 310v159l380 -469h-317l-224 297h130l-226 -297h-313l383 469v-159l-364 440h323l202 -267h-130l198 267h319z" />
    <glyph glyph-name="Y" unicode="Y" horiz-adv-x="957" 
d="M350 0v370h258v-370h-258zM0 750h283l249 -321h-107l248 321h283l-394 -506l-167 -3z" />
    <glyph glyph-name="Z" unicode="Z" horiz-adv-x="830" 
d="M43 0v183l449 415l194 -45h-640v198h738v-183l-448 -415l-166 45h617v-198h-744z" />
    <glyph glyph-name="bracketleft" unicode="[" horiz-adv-x="468" 
d="M430 750v-186h-253l116 116v-726l-116 116h253v-186h-373v866h373z" />
    <glyph glyph-name="backslash" unicode="\" horiz-adv-x="485" 
d="M193 777l280 -804h-181l-280 804h181z" />
    <glyph glyph-name="bracketright" unicode="]" horiz-adv-x="468" 
d="M38 750h373v-866h-373v186h253l-116 -116v726l116 -116h-253v186z" />
    <glyph glyph-name="asciicircum" unicode="^" horiz-adv-x="620" 
d="M405 375l-115 225h40l-115 -225h-200l205 375h180l205 -375h-200z" />
    <glyph glyph-name="underscore" unicode="_" horiz-adv-x="482" 
d="M-44 -30h570v-168h-570v168z" />
    <glyph glyph-name="grave" unicode="`" horiz-adv-x="412" 
d="M264 827l128 -200h-232l-140 200h244z" />
    <glyph glyph-name="a" unicode="a" horiz-adv-x="852" 
d="M555 0l-29 203l29 84l-29 83l29 205h264l-40 -287l40 -288h-264zM608 287q-10 -92 -49.5 -160.5t-103 -106.5t-145.5 -38q-84 0 -147.5 38t-99 107t-35.5 160q0 92 35.5 161t99 107t147.5 38q82 0 145.5 -37.5t103.5 -106t49 -162.5zM284 287q0 -33 13.5 -58.5t38 -40.5
t56.5 -15q33 0 64 15t54.5 40.5t32.5 58.5q-9 33 -32.5 59t-54.5 41t-64 15q-32 0 -56.5 -15t-38 -41t-13.5 -59z" />
    <glyph glyph-name="b" unicode="b" horiz-adv-x="834" 
d="M48 770h254v-342l-31 -63v-170l31 -55v-140h-254v770zM227 287q10 94 49.5 162.5t103.5 106t145 37.5q85 0 148 -38t98.5 -107t35.5 -161q0 -91 -35.5 -160t-98.5 -107t-148 -38q-82 0 -145.5 38t-102.5 106.5t-50 160.5zM551 287q0 33 -13.5 59t-38 41t-56.5 15
q-33 0 -64 -15t-54 -41t-33 -59q10 -33 33 -58.5t54 -40.5t64 -15q32 0 56.5 15t38 40.5t13.5 58.5z" />
    <glyph glyph-name="c" unicode="c" horiz-adv-x="787" 
d="M766 253q-7 -81 -57 -142t-130.5 -95t-181.5 -34q-110 0 -194 38.5t-131 107.5t-47 159q0 91 47 159.5t131 107.5t194 39q101 0 181.5 -34t130.5 -94.5t57 -142.5h-251q-9 43 -40.5 64.5t-77.5 21.5q-35 0 -61.5 -13.5t-40.5 -40.5t-14 -67t14 -66.5t40.5 -40t61.5 -13.5
q46 0 77.5 23.5t40.5 62.5h251z" />
    <glyph glyph-name="d" unicode="d" horiz-adv-x="855" 
d="M560 0l-29 214l39 71l-39 96l52 389h264l-64 -462l41 -308h-264zM608 287q-10 -92 -49.5 -160.5t-103 -106.5t-145.5 -38q-84 0 -147.5 38t-99 107t-35.5 160q0 92 35.5 161t99 107t147.5 38q82 0 145.5 -37.5t103.5 -106t49 -162.5zM284 287q0 -33 13.5 -58.5t38 -40.5
t56.5 -15q33 0 64 15t54.5 40.5t32.5 58.5q-9 33 -32.5 59t-54.5 41t-64 15q-32 0 -56.5 -15t-38 -41t-13.5 -59z" />
    <glyph glyph-name="e" unicode="e" horiz-adv-x="750" 
d="M399 -18q-107 0 -191.5 38.5t-133.5 108t-49 161.5q0 91 47.5 159t129.5 106t184 38q107 0 182 -45.5t115 -129t40 -197.5h-490v139h342l-68 -47q-4 35 -18.5 59t-37.5 36.5t-55 12.5q-37 0 -62.5 -14.5t-39 -39.5t-13.5 -56q0 -48 21.5 -80.5t65.5 -49.5t111 -17
q62 0 121 14t109 40v-154q-64 -40 -139.5 -61t-170.5 -21z" />
    <glyph glyph-name="f" unicode="f" horiz-adv-x="623" 
d="M495 602q-63 0 -83 -19t-20 -58v-525h-254v515q0 91 38 151.5t111 91t177 30.5q44 0 80 -5.5t79 -16.5v-182q-31 8 -62.5 13t-65.5 5zM25 337v185h582v-185h-582z" />
    <glyph glyph-name="g" unicode="g" horiz-adv-x="836" 
d="M536 147v95l8 28v161l-8 21v123h254v-422q0 -103 -51 -178.5t-144 -116.5t-221 -41q-82 0 -151.5 21t-140.5 61v185q62 -45 132.5 -66.5t143.5 -21.5q86 0 132 33t46 118zM309 71q-82 0 -146 32.5t-100.5 91.5t-36.5 137q0 79 36.5 137.5t100.5 91t146 32.5
q62 0 112.5 -19t89 -50t64.5 -66.5t39 -69.5t13 -59q0 -35 -20.5 -79t-60.5 -85t-99.5 -67.5t-137.5 -26.5zM398 239q50 0 87 24t59 69q-23 46 -60 69.5t-86 23.5q-35 0 -61.5 -10.5t-41 -31.5t-14.5 -51q0 -29 14 -50t40.5 -32t62.5 -11z" />
    <glyph glyph-name="h" unicode="h" horiz-adv-x="807" 
d="M48 770h254v-770h-254v770zM501 593q84 0 143 -33.5t90.5 -94t31.5 -141.5v-324h-254v288q0 48 -26.5 74t-74.5 26q-34 0 -58.5 -13.5t-37.5 -39t-13 -61.5l-75 38q14 94 54 156.5t97 93.5t123 31z" />
    <glyph glyph-name="i" unicode="i" horiz-adv-x="350" 
d="M48 587l127 -26l127 26v-587h-254v587zM175 617q-64 0 -103 31t-39 85t39 85t103 31q65 0 103.5 -31t38.5 -85t-38.5 -85t-103.5 -31z" />
    <glyph glyph-name="j" unicode="j" horiz-adv-x="350" 
d="M48 587l127 -26l127 26v-752h-254v752zM175 617q-64 0 -103 31t-39 85t39 85t103 31q65 0 103.5 -31t38.5 -85t-38.5 -85t-103.5 -31z" />
    <glyph glyph-name="k" unicode="k" horiz-adv-x="782" 
d="M302 197l-68 22l287 356h258l-507 -575h-224v770h254v-573zM357 278l196 125l240 -403h-282z" />
    <glyph glyph-name="l" unicode="l" horiz-adv-x="350" 
d="M48 770h254v-770h-254v770z" />
    <glyph glyph-name="m" unicode="m" horiz-adv-x="1244" 
d="M21 575h254l40 -245v-330h-254v369zM504 593q81 0 138 -33.5t87 -94t30 -141.5v-324h-254v288q0 48 -23.5 74t-67.5 26q-31 0 -53.5 -13.5t-34 -39t-11.5 -61.5l-75 38q14 94 52.5 156.5t93.5 93.5t118 31zM947 593q81 0 138.5 -33.5t87.5 -94t30 -141.5v-324h-254v288
q0 48 -23.5 74t-67.5 26q-31 0 -53.5 -13.5t-34 -39t-11.5 -61.5l-75 38q14 94 52 156.5t93 93.5t118 31z" />
    <glyph glyph-name="n" unicode="n" horiz-adv-x="820" 
d="M21 575h254l40 -245v-330h-254v369zM514 593q84 0 143 -33.5t90.5 -94t31.5 -141.5v-324h-254v288q0 48 -26.5 74t-74.5 26q-34 0 -58.5 -13.5t-37.5 -39t-13 -61.5l-75 38q14 94 54 156.5t97 93.5t123 31z" />
    <glyph glyph-name="o" unicode="o" horiz-adv-x="810" 
d="M405 -18q-114 0 -199.5 38t-133 107t-47.5 160q0 92 47.5 161t133 107t199.5 38t199.5 -38t133 -107t47.5 -161q0 -91 -47.5 -160t-133 -107t-199.5 -38zM405 167q40 0 67.5 14t42 41t14.5 65q0 39 -14.5 66t-42 41t-67.5 14q-39 0 -67 -14t-42.5 -41t-14.5 -65
q0 -39 14.5 -66t42.5 -41t67 -14z" />
    <glyph glyph-name="p" unicode="p" horiz-adv-x="834" 
d="M48 575h254v-142l-10 -28v-190l10 -55v-325h-254v740zM227 287q10 94 49.5 162.5t103.5 106t145 37.5q85 0 148 -38t98.5 -107t35.5 -161q0 -91 -35.5 -160t-98.5 -107t-148 -38q-82 0 -145.5 38t-102.5 106.5t-50 160.5zM551 287q0 33 -13.5 59t-38 41t-56.5 15
q-33 0 -64 -15t-54 -41t-33 -59q10 -33 33 -58.5t54 -40.5t64 -15q32 0 56.5 15t38 40.5t13.5 58.5z" />
    <glyph glyph-name="q" unicode="q" horiz-adv-x="835" 
d="M787 575v-740h-254v325l10 55v190l-10 28v142h254zM608 287q-10 -92 -49.5 -160.5t-103 -106.5t-145.5 -38q-84 0 -147.5 38t-99 107t-35.5 160q0 92 35.5 161t99 107t147.5 38q82 0 145.5 -37.5t103.5 -106t49 -162.5zM284 287q0 -33 13.5 -58.5t38 -40.5t56.5 -15
q33 0 64 15t54.5 40.5t32.5 58.5q-9 33 -32.5 59t-54.5 41t-64 15q-32 0 -56.5 -15t-38 -41t-13.5 -59z" />
    <glyph glyph-name="r" unicode="r" horiz-adv-x="585" 
d="M21 575h260l34 -203v-372h-254v375zM569 587v-215q-34 6 -61 8.5t-48 2.5q-38 0 -71 -13.5t-53.5 -48.5t-20.5 -100l-45 56q10 62 25.5 118.5t41.5 101t66 70.5t100 26q15 0 31 -1.5t35 -4.5z" />
    <glyph glyph-name="s" unicode="s" horiz-adv-x="786" 
d="M760 196q0 -72 -45 -119.5t-125.5 -71t-188.5 -23.5q-111 0 -195.5 26.5t-133 74t-51.5 110.5h258q7 -17 24 -28.5t44.5 -17t67.5 -5.5q48 0 73 7t25 20q0 15 -21 21.5t-68 9.5l-94 6q-109 7 -173.5 29.5t-92.5 61.5t-28 93q0 69 43.5 114t121.5 67t182 22
q102 0 181 -25.5t127 -70.5t56 -106h-258q-5 16 -20 27.5t-39 18t-58 6.5q-46 0 -67 -7.5t-21 -20.5q0 -15 13 -21t51 -8l126 -8q108 -6 170.5 -28.5t89 -60.5t26.5 -93z" />
    <glyph glyph-name="t" unicode="t" horiz-adv-x="635" 
d="M6 390v109l113 57l111 176h143v-157h225v-185h-225v-118q0 -55 21 -77.5t86 -22.5q40 0 71.5 5.5t56.5 13.5v-184q-34 -10 -83.5 -17.5t-103.5 -7.5q-102 0 -169 30.5t-100 88.5t-33 138v151h-113z" />
    <glyph glyph-name="u" unicode="u" horiz-adv-x="807" 
d="M299 -17q-81 0 -139 33.5t-88.5 94t-30.5 140.5v324h254v-288q0 -47 24.5 -73t69.5 -26q35 0 57.5 12.5t34 38t11.5 62.5l75 -38q-13 -93 -52.5 -155.5t-95 -93.5t-120.5 -31zM532 0l-40 245v330h254v-369l40 -206h-254z" />
    <glyph glyph-name="v" unicode="v" horiz-adv-x="806" 
d="M447 123l-83 1l175 451h270l-261 -575h-290l-261 575h280z" />
    <glyph glyph-name="w" unicode="w" horiz-adv-x="1168" 
d="M854 147h-75l139 428h254l-204 -575h-259l-165 452h80l-165 -452h-259l-204 575h254l139 -428h-75l151 428h238z" />
    <glyph glyph-name="x" unicode="x" horiz-adv-x="767" 
d="M-16 0l259 318v-57l-244 314h278l140 -176h-64l139 176h277l-256 -317l-14 85l285 -343h-287l-150 187h68l-148 -187h-283z" />
    <glyph glyph-name="y" unicode="y" horiz-adv-x="818" 
d="M270 -183q-72 0 -126.5 17.5t-108.5 57.5v170q53 -34 98.5 -48.5t98.5 -14.5q42 0 73.5 17.5t51.5 67.5l195 491h270l-262 -567q-33 -72 -80.5 -114t-101.5 -59.5t-108 -17.5zM238 77l-231 498h280l193 -498h-242z" />
    <glyph glyph-name="z" unicode="z" horiz-adv-x="723" 
d="M39 0v174l362 247l185 -24h-545v178h641v-174l-362 -247l-156 24h520v-178h-645z" />
    <glyph glyph-name="braceleft" unicode="{" horiz-adv-x="514" 
d="M475 574h-119q-13 0 -18.5 -9.5t-0.5 -25.5l21 -64q23 -69 -5 -109.5t-92 -48.5q64 -7 92 -48t5 -110l-21 -64q-5 -16 0.5 -25.5t18.5 -9.5h119v-176h-242q-55 0 -91 26.5t-46.5 69.5t7.5 92l41 108q9 23 -1.5 38.5t-37.5 15.5h-76v166h76q27 0 37.5 15.5t1.5 38.5
l-41 108q-18 49 -7.5 92t46.5 69.5t91 26.5h242v-176z" />
    <glyph glyph-name="bar" unicode="|" horiz-adv-x="332" 
d="M60 750h212v-848h-212v848z" />
    <glyph glyph-name="braceright" unicode="}" horiz-adv-x="514" 
d="M39 574v176h242q56 0 91.5 -26.5t46.5 -69.5t-8 -92l-41 -108q-9 -23 1.5 -38.5t37.5 -15.5h76v-166h-76q-27 0 -37.5 -15.5t-1.5 -38.5l41 -108q19 -49 8 -92t-46.5 -69.5t-91.5 -26.5h-242v176h119q14 0 19 9.5t0 25.5l-21 64q-22 69 5.5 110t91.5 48q-64 8 -91.5 48.5
t-5.5 109.5l21 64q5 16 0 25.5t-19 9.5h-119z" />
    <glyph glyph-name="asciitilde" unicode="~" horiz-adv-x="620" 
d="M30 417q77 40 168 40q45 0 78.5 -9l67 -18t78.5 -9q91 0 168 40v-170q-77 -40 -168 -40q-45 0 -78.5 9l-67 18t-78.5 9q-91 0 -168 -40v170z" />
    <glyph glyph-name="uni00A0" unicode="&#xa0;" horiz-adv-x="236" 
 />
    <glyph glyph-name="exclamdown" unicode="&#xa1;" horiz-adv-x="344" 
d="M305 -155h-266l43 460h180zM172 607q61 0 98 -34.5t37 -90.5t-37 -90.5t-98 -34.5t-98 34.5t-37 90.5t37 90.5t98 34.5z" />
    <glyph glyph-name="cent" unicode="&#xa2;" horiz-adv-x="810" 
d="M341 661h126v-748h-126v748zM764 248q-7 -77 -54.5 -137t-125.5 -94t-178 -34q-106 0 -187.5 38.5t-127 106.5t-45.5 158t45.5 159t126.5 107.5t188 38.5q97 0 175 -33t126.5 -93t56.5 -140h-232q-9 44 -42 69t-84 25q-38 0 -67 -15t-45 -44.5t-16 -73.5q0 -43 16 -72.5
t44.5 -44.5t67.5 -15q48 0 82 25.5t44 68.5h232z" />
    <glyph glyph-name="sterling" unicode="&#xa3;" horiz-adv-x="842" 
d="M44 441h634v-165h-634v165zM275 150l-89 25h626v-175h-764v210q89 10 137 29t48 61q0 24 -14 44t-34 40t-40.5 43t-34.5 53t-14 70q0 66 43 115t121 76t182 27q103 0 182.5 -32t126 -89t50.5 -134h-252q-6 36 -32 55.5t-68 19.5q-44 0 -68.5 -16.5t-24.5 -47.5
q0 -23 13 -40t32 -32.5t38 -32.5t32 -39t13 -53q0 -44 -28 -80.5t-75 -61.5t-106 -35z" />
    <glyph glyph-name="currency" unicode="&#xa4;" horiz-adv-x="752" 
d="M376 121q-100 0 -169 31.5t-104 87.5t-35 129q0 74 35 129.5t104 87t169 31.5q101 0 169.5 -31.5t103.5 -87t35 -129.5q0 -73 -35 -129t-103.5 -87.5t-169.5 -31.5zM376 291q59 0 83.5 19t24.5 59q0 41 -24.5 59.5t-83.5 18.5t-83.5 -18.5t-24.5 -59.5q0 -40 24.5 -59
t83.5 -19zM110 639l131 -101l-107 -68l-101 91zM642 639l77 -88l-101 -81l-107 68zM110 99l-77 78l101 91l107 -68zM642 99l-131 101l107 68l101 -91z" />
    <glyph glyph-name="yen" unicode="&#xa5;" horiz-adv-x="912" 
d="M86 431h292l77 -37l64 37h309v-136h-742v136zM86 255h742v-136h-742v136zM328 0v370h258v-370h-258zM14 750h282l212 -321h-103l211 321h282l-358 -506l-167 -3z" />
    <glyph glyph-name="brokenbar" unicode="&#xa6;" horiz-adv-x="332" 
d="M60 254h212v-352h-212v352zM272 398h-212v352h212v-352z" />
    <glyph glyph-name="section" unicode="&#xa7;" horiz-adv-x="921" 
d="M446 768q130 0 215.5 -30.5t129.5 -78.5t48 -102h-254q-2 16 -17 29.5t-46 22t-80 8.5q-52 0 -75.5 -11t-23.5 -27q0 -15 14 -23.5t45 -16.5l239 -57q87 -20 138.5 -45t74.5 -58.5t23 -80.5q0 -65 -65 -108t-212 -43v50q31 8 45 23t14 33q0 27 -21.5 41t-65.5 25l-254 64
q-78 20 -130.5 42t-79.5 56.5t-27 91.5q0 52 38.5 96.5t119 71.5t207.5 27zM474 -148q-130 0 -215.5 30.5t-129 78.5t-48.5 102h254q2 -15 17 -29t46 -22.5t80 -8.5q53 0 76 11t23 27q0 15 -14.5 24t-44.5 16l-239 57q-117 28 -176.5 71t-59.5 113q0 65 65 108t212 43v-50
q-31 -7 -45 -22.5t-14 -33.5q0 -27 22 -41t65 -25l254 -64q78 -19 130.5 -41.5t79.5 -57t27 -91.5q0 -52 -38.5 -96.5t-119 -71.5t-207.5 -27z" />
    <glyph glyph-name="dieresis" unicode="&#xa8;" horiz-adv-x="648" 
d="M167 617q-60 0 -95.5 29t-35.5 82q0 50 35.5 78.5t95.5 28.5t95.5 -28.5t35.5 -78.5q0 -53 -35.5 -82t-95.5 -29zM481 617q-60 0 -95.5 29t-35.5 82q0 50 35.5 78.5t95.5 28.5t95.5 -28.5t35.5 -78.5q0 -53 -35.5 -82t-95.5 -29z" />
    <glyph glyph-name="copyright" unicode="&#xa9;" horiz-adv-x="894" 
d="M447 -18q-83 0 -155.5 29t-127.5 82t-86 125t-31 158q0 85 31 157t86 124.5t127.5 81.5t155.5 29t155.5 -29t127.5 -81.5t86 -124.5t31 -157q0 -86 -31 -158t-86 -125t-127.5 -82t-155.5 -29zM447 62q66 0 123 22.5t100 64.5t67 99.5t24 126.5t-24 126.5t-67 99.5
t-100 64.5t-123 22.5t-123 -22.5t-100 -64.5t-67 -99.5t-24 -126.5t24 -126.5t67 -99.5t100 -64.5t123 -22.5zM704 352q-7 -63 -41 -110.5t-89.5 -73.5t-126.5 -26q-76 0 -133.5 29.5t-89 82.5t-31.5 124t31.5 124t89 82.5t133.5 29.5q71 0 126.5 -26t89.5 -73t41 -111h-171
q-7 32 -29 48.5t-57 16.5q-40 0 -61 -24.5t-21 -66.5t21 -66.5t61 -24.5q38 0 58.5 16t27.5 49h171z" />
    <glyph glyph-name="ordfeminine" unicode="&#xaa;" horiz-adv-x="709" 
d="M442 303l-23 157l23 63l-23 67l23 155h223l-33 -221l33 -221h-223zM485 523q-7 -70 -37 -123t-79.5 -82.5t-113.5 -29.5q-66 0 -115.5 29.5t-77 82.5t-27.5 123q0 72 27.5 125t77 82t115.5 29q65 0 114.5 -29.5t79.5 -82.5t36 -124zM251 523q0 -21 9.5 -38t26 -26.5
t38.5 -9.5q35 0 66.5 21.5t40.5 52.5q-9 33 -40.5 54.5t-66.5 21.5q-22 0 -38.5 -10t-26 -27t-9.5 -39z" />
    <glyph glyph-name="guillemotleft" unicode="&#xab;" horiz-adv-x="807" 
d="M180 555h257l-167 -272v48l167 -272h-257l-145 248zM517 555h257l-167 -272v48l167 -272h-257l-145 248z" />
    <glyph glyph-name="logicalnot" unicode="&#xac;" horiz-adv-x="620" 
d="M405 166v313l115 -115h-495v180h560v-378h-180z" />
    <glyph glyph-name="uni00AD" unicode="&#xad;" horiz-adv-x="384" 
d="M51 447h282v-198h-282v198z" />
    <glyph glyph-name="registered" unicode="&#xae;" horiz-adv-x="812" 
d="M406 122q-77 0 -142.5 24t-114 67.5t-75 102.5t-26.5 129t26.5 129t75 102.5t114 67.5t142.5 24t142.5 -24t114 -67.5t75 -102.5t26.5 -129t-26.5 -129t-75 -102.5t-114 -67.5t-142.5 -24zM406 200q85 0 146 31.5t94.5 86.5t33.5 127t-33.5 127.5t-94.5 86.5t-146 31
q-84 0 -145.5 -31t-95 -86.5t-33.5 -127.5t33.5 -127t95 -86.5t145.5 -31.5zM240 624h116v-353h-116v353zM436 387h-109v87h99q16 0 24.5 8t8.5 23t-8.5 22.5t-24.5 7.5h-99v89h109q63 0 102 -33t39 -86t-39 -85.5t-102 -32.5zM376 436h117l98 -165h-133z" />
    <glyph glyph-name="macron" unicode="&#xaf;" horiz-adv-x="544" 
d="M29 642v147h524v-147h-524z" />
    <glyph glyph-name="degree" unicode="&#xb0;" horiz-adv-x="506" 
d="M253 420q-61 0 -108.5 21.5t-74.5 60t-27 88.5t27 88.5t74.5 60t108.5 21.5q62 0 109 -21.5t74 -60t27 -88.5t-27 -88.5t-74 -60t-109 -21.5zM253 516q36 0 54.5 18.5t18.5 55.5t-18.5 55.5t-54.5 18.5t-54.5 -18.5t-18.5 -55.5t18.5 -55.5t54.5 -18.5z" />
    <glyph glyph-name="plusminus" unicode="&#xb1;" horiz-adv-x="620" 
d="M220 234v400h180v-400h-180zM30 349v170h560v-170h-560zM30 184h560v-170h-560v170z" />
    <glyph glyph-name="uni00B2" unicode="&#xb2;" horiz-adv-x="549" 
d="M33 686q4 49 34.5 90.5t87.5 67.5t139 26q63 0 111 -18.5t75.5 -52.5t27.5 -80q0 -38 -17 -66.5t-49 -50.5t-77 -41l-117 -48l-69 31h327v-135h-468v105l189 100q37 20 58.5 32.5t30.5 23t9 22.5q0 16 -13 24.5t-35 8.5q-31 0 -46 -11.5t-20 -27.5h-178z" />
    <glyph glyph-name="uni00B3" unicode="&#xb3;" horiz-adv-x="580" 
d="M29 690q5 79 73 129.5t201 50.5q117 0 179 -37t62 -97q0 -55 -50 -82t-151 -25v18q83 2 129 -10t64 -35t18 -56q0 -62 -60.5 -104.5t-195.5 -42.5q-88 0 -151 23t-96.5 64t-34.5 96h176q4 -28 29 -39t63 -11q42 0 58 6t16 19t-11.5 17t-43.5 4h-61v106h61q19 0 29.5 3.5
t15 9.5t4.5 13q0 11 -14 18.5t-49 7.5q-44 0 -63 -13t-21 -33h-176z" />
    <glyph glyph-name="acute" unicode="&#xb4;" horiz-adv-x="412" 
d="M148 827h244l-140 -200h-232z" />
    <glyph glyph-name="paragraph" unicode="&#xb6;" horiz-adv-x="843" 
d="M261 750h296v-750h-178v409l115 -115h-233q-70 0 -123.5 29t-84 80.5t-30.5 118.5t30.5 118.5t84 80.5t123.5 29zM601 0v750h178v-750h-178z" />
    <glyph glyph-name="periodcentered" unicode="&#xb7;" horiz-adv-x="332" 
d="M166 229q-38 0 -69.5 18t-49.5 49.5t-18 69.5q0 39 18 70t49.5 49t69.5 18q39 0 70 -18t49 -49t18 -70q0 -38 -18 -69.5t-49 -49.5t-70 -18z" />
    <glyph glyph-name="cedilla" unicode="&#xb8;" horiz-adv-x="449" 
d="M166 22h116l-60 -91l-57 4q25 11 54 18t64 7q71 0 108.5 -26.5t37.5 -73.5q0 -50 -49.5 -83.5t-147.5 -33.5q-85 0 -140.5 30.5t-71.5 84.5h140q6 -10 23 -17.5t49 -7.5t48 9.5t16 22.5t-12.5 22t-41.5 9q-12 0 -24.5 -2t-22.5 -7h-117z" />
    <glyph glyph-name="uni00B9" unicode="&#xb9;" horiz-adv-x="460" 
d="M339 860v-381h-166v351l97 -110l-221 -26v138l157 28h133zM43 544h396v-135h-396v135z" />
    <glyph glyph-name="ordmasculine" unicode="&#xba;" horiz-adv-x="668" 
d="M334 288q-90 0 -158 29.5t-105.5 82.5t-37.5 123q0 71 37.5 124t105.5 82.5t158 29.5t158 -29t105.5 -82t37.5 -125q0 -70 -37.5 -123t-105.5 -82.5t-158 -29.5zM334 443q41 0 63 21.5t22 58.5q0 39 -22 60t-63 21t-63 -21t-22 -60q0 -37 22 -58.5t63 -21.5z" />
    <glyph glyph-name="guillemotright" unicode="&#xbb;" horiz-adv-x="807" 
d="M627 555l145 -248l-145 -248h-257l167 272v-48l-167 272h257zM290 555l145 -248l-145 -248h-257l167 272v-48l-167 272h257z" />
    <glyph glyph-name="onequarter" unicode="&#xbc;" horiz-adv-x="1181" 
d="M330 750v-381h-166v351l97 -110l-221 -26v138l157 28h133zM34 434h396v-135h-396v135zM713 750h181l-410 -750h-181zM1107 451v-451h-165v368l58 6l-188 -238l-20 49h374v-125h-502v120l221 271h222z" />
    <glyph glyph-name="onehalf" unicode="&#xbd;" horiz-adv-x="1205" 
d="M329 750v-381h-166v351l97 -110l-221 -26v138l157 28h133zM33 434h396v-135h-396v135zM712 750h181l-410 -750h-181zM701 277q4 49 34.5 90.5t87.5 67.5t139 26q63 0 111 -18.5t75.5 -52.5t27.5 -80q0 -38 -17 -66.5t-49 -50.5t-77 -41l-117 -48l-69 31h327v-135h-468
v105l189 100q37 20 58.5 32.5t30.5 23t9 22.5q0 16 -13 24.5t-35 8.5q-31 0 -46 -11.5t-20 -27.5h-178z" />
    <glyph glyph-name="threequarters" unicode="&#xbe;" horiz-adv-x="1295" 
d="M42 580q5 79 73 129.5t201 50.5q117 0 179 -37t62 -97q0 -55 -50 -82t-151 -25v18q83 2 129 -10t64 -35t18 -56q0 -62 -60.5 -104.5t-195.5 -42.5q-88 0 -151 23t-96.5 64t-34.5 96h176q4 -28 29 -39t63 -11q42 0 58 6t16 19t-11.5 17t-43.5 4h-61v106h61q19 0 29.5 3.5
t15 9.5t4.5 13q0 11 -14 18.5t-49 7.5q-44 0 -63 -13t-21 -33h-176zM812 750h181l-410 -750h-181zM1215 451v-451h-165v368l58 6l-188 -238l-20 49h374v-125h-502v120l221 271h222z" />
    <glyph glyph-name="questiondown" unicode="&#xbf;" horiz-adv-x="735" 
d="M497 293q0 -45 -26.5 -82.5t-90.5 -63.5l-78 -32q-21 -8 -30.5 -17.5t-9.5 -23.5q0 -25 24.5 -39.5t75.5 -14.5q53 0 82.5 21.5t35.5 58.5h242q-8 -129 -103.5 -201t-257.5 -72q-161 0 -251.5 62.5t-90.5 174.5q0 57 30 99.5t94 69.5l88 37q20 8 29 19.5t9 28.5v6h223
q3 -9 4 -17t1 -14zM383 607q61 0 98 -34.5t37 -90.5t-37 -90.5t-98 -34.5t-98 34.5t-37 90.5t37 90.5t98 34.5z" />
    <glyph glyph-name="Agrave" unicode="&#xc0;" horiz-adv-x="996" 
d="M238 126v205h511v-205h-511zM670 750l329 -750h-275l-259 636h66l-259 -636h-275l329 750h344zM487 982l148 -180h-252l-180 180h284z" />
    <glyph glyph-name="Aacute" unicode="&#xc1;" horiz-adv-x="996" 
d="M238 126v205h511v-205h-511zM670 750l329 -750h-275l-259 636h66l-259 -636h-275l329 750h344zM500 982h284l-180 -180h-252z" />
    <glyph glyph-name="Acircumflex" unicode="&#xc2;" horiz-adv-x="996" 
d="M238 126v205h511v-205h-511zM670 750l329 -750h-275l-259 636h66l-259 -636h-275l329 750h344zM367 982h262l155 -180h-200l-146 104h120l-146 -104h-200z" />
    <glyph glyph-name="Atilde" unicode="&#xc3;" horiz-adv-x="996" 
d="M238 126v205h511v-205h-511zM670 750l329 -750h-275l-259 636h66l-259 -636h-275l329 750h344zM202 806q13 89 59.5 139.5t139.5 50.5q28 0 53.5 -6.5t48 -15t42.5 -15t37 -6.5q20 0 33.5 9t17.5 27h160q-13 -88 -59.5 -139t-139.5 -51q-28 0 -53.5 6.5t-48 15t-42.5 15
t-37 6.5q-20 0 -33.5 -9t-17.5 -27h-160z" />
    <glyph glyph-name="Adieresis" unicode="&#xc4;" horiz-adv-x="996" 
d="M238 126v205h511v-205h-511zM670 750l329 -750h-275l-259 636h66l-259 -636h-275l329 750h344zM338 792q-60 0 -95.5 29t-35.5 82q0 50 35.5 78.5t95.5 28.5t95.5 -28.5t35.5 -78.5q0 -53 -35.5 -82t-95.5 -29zM658 792q-60 0 -95.5 29t-35.5 82q0 50 35.5 78.5
t95.5 28.5t95.5 -28.5t35.5 -78.5q0 -53 -35.5 -82t-95.5 -29z" />
    <glyph glyph-name="Aring" unicode="&#xc5;" horiz-adv-x="996" 
d="M238 126v205h511v-205h-511zM670 750l329 -750h-275l-259 636h66l-259 -636h-275l329 750h344zM498 782q-106 0 -164 39t-58 111t58 111t164 39q107 0 164.5 -39t57.5 -111t-57.5 -111t-164.5 -39zM498 886q46 0 66 12t20 34t-20 34t-66 12t-66 -12t-20 -34t20 -34
t66 -12z" />
    <glyph glyph-name="AE" unicode="&#xc6;" horiz-adv-x="1266" 
d="M827 286l28 -82h365v-204h-553l-227 677h82l-247 -677h-275l299 750h916v-204h-475l28 -82h415v-178h-356zM221 126v205h481v-205h-481z" />
    <glyph glyph-name="Ccedilla" unicode="&#xc7;" horiz-adv-x="949" 
d="M922 325q-12 -103 -70.5 -180t-154.5 -120t-220 -43q-134 0 -234 49t-155.5 137.5t-55.5 206.5t55.5 206.5t155.5 137.5t234 49q124 0 220 -43t154.5 -120t70.5 -180h-259q-9 39 -33 66.5t-62.5 42t-90.5 14.5q-58 0 -99.5 -20.5t-63.5 -59.5t-22 -93t22 -92.5
t63.5 -59.5t99.5 -21q52 0 90.5 13.5t62.5 41t33 68.5h259zM428 25h115l-51 -93l-63 4q28 12 58.5 19.5t63.5 7.5q77 0 117 -27.5t40 -77.5q0 -52 -53 -86.5t-158 -34.5q-91 0 -150 31.5t-75 88.5h157q5 -9 21 -16t47 -7t46.5 8.5t15.5 21.5q0 12 -12.5 20.5t-39.5 8.5
q-13 0 -27.5 -1.5t-26.5 -6.5h-117z" />
    <glyph glyph-name="Egrave" unicode="&#xc8;" horiz-adv-x="812" 
d="M729 464v-178h-565v178h565zM341 375l-46 -279l-98 108h569v-204h-726l55 375l-55 375h721v-204h-564l98 108zM398 982l148 -180h-252l-180 180h284z" />
    <glyph glyph-name="Eacute" unicode="&#xc9;" horiz-adv-x="812" 
d="M729 464v-178h-565v178h565zM341 375l-46 -279l-98 108h569v-204h-726l55 375l-55 375h721v-204h-564l98 108zM411 982h284l-180 -180h-252z" />
    <glyph glyph-name="Ecircumflex" unicode="&#xca;" horiz-adv-x="812" 
d="M729 464v-178h-565v178h565zM341 375l-46 -279l-98 108h569v-204h-726l55 375l-55 375h721v-204h-564l98 108zM278 982h262l155 -180h-200l-146 104h120l-146 -104h-200z" />
    <glyph glyph-name="Edieresis" unicode="&#xcb;" horiz-adv-x="812" 
d="M729 464v-178h-565v178h565zM341 375l-46 -279l-98 108h569v-204h-726l55 375l-55 375h721v-204h-564l98 108zM249 792q-60 0 -95.5 29t-35.5 82q0 50 35.5 78.5t95.5 28.5t95.5 -28.5t35.5 -78.5q0 -53 -35.5 -82t-95.5 -29zM569 792q-60 0 -95.5 29t-35.5 82
q0 50 35.5 78.5t95.5 28.5t95.5 -28.5t35.5 -78.5q0 -53 -35.5 -82t-95.5 -29z" />
    <glyph glyph-name="Igrave" unicode="&#xcc;" horiz-adv-x="378" 
d="M60 750h258v-750h-258v750zM178 982l148 -180h-252l-180 180h284z" />
    <glyph glyph-name="Iacute" unicode="&#xcd;" horiz-adv-x="378" 
d="M60 750h258v-750h-258v750zM191 982h284l-180 -180h-252z" />
    <glyph glyph-name="Icircumflex" unicode="&#xce;" horiz-adv-x="378" 
d="M61 982h256l108 -180h-171l-96 103h62l-96 -103h-171zM60 750h258v-750h-258v750z" />
    <glyph glyph-name="Idieresis" unicode="&#xcf;" horiz-adv-x="378" 
d="M69 792q-50 0 -77.5 28.5t-27.5 80.5q0 53 27.5 81t77.5 28t77.5 -28t27.5 -81q0 -52 -27.5 -80.5t-77.5 -28.5zM309 792q-50 0 -77.5 28.5t-27.5 80.5q0 53 27.5 81t77.5 28t77.5 -28t27.5 -81q0 -52 -27.5 -80.5t-77.5 -28.5zM60 750h258v-750h-258v750z" />
    <glyph glyph-name="Eth" unicode="&#xd0;" horiz-adv-x="966" 
d="M28 457h453v-162h-453v162zM478 750q137 0 239.5 -46.5t159.5 -130.5t57 -198q0 -113 -57 -197.5t-159.5 -131t-239.5 -46.5h-398v750h398zM336 115l-116 115h278q55 0 94.5 17.5t60.5 50t21 77.5q0 46 -21 78t-60.5 49.5t-94.5 17.5h-278l116 115v-520z" />
    <glyph glyph-name="Ntilde" unicode="&#xd1;" horiz-adv-x="995" 
d="M755 188l-70 -17v579h250v-750h-323l-372 578l70 17v-595h-250v750h333zM216 806q13 89 59.5 139.5t139.5 50.5q28 0 53.5 -6.5t48 -15t42.5 -15t37 -6.5q20 0 33.5 9t17.5 27h160q-13 -88 -59.5 -139t-139.5 -51q-28 0 -53.5 6.5t-48 15t-42.5 15t-37 6.5
q-20 0 -33.5 -9t-17.5 -27h-160z" />
    <glyph glyph-name="Ograve" unicode="&#xd2;" horiz-adv-x="976" 
d="M488 -18q-137 0 -239.5 49t-159.5 137.5t-57 206.5t57 206.5t159.5 137.5t239.5 49t239.5 -49t159.5 -137.5t57 -206.5t-57 -206.5t-159.5 -137.5t-239.5 -49zM488 212q61 0 105 19.5t67.5 56t23.5 87.5t-23.5 87.5t-67.5 56t-105 19.5t-105 -19.5t-67.5 -56t-23.5 -87.5
t23.5 -87.5t67.5 -56t105 -19.5zM477 982l148 -180h-252l-180 180h284z" />
    <glyph glyph-name="Oacute" unicode="&#xd3;" horiz-adv-x="976" 
d="M488 -18q-137 0 -239.5 49t-159.5 137.5t-57 206.5t57 206.5t159.5 137.5t239.5 49t239.5 -49t159.5 -137.5t57 -206.5t-57 -206.5t-159.5 -137.5t-239.5 -49zM488 212q61 0 105 19.5t67.5 56t23.5 87.5t-23.5 87.5t-67.5 56t-105 19.5t-105 -19.5t-67.5 -56t-23.5 -87.5
t23.5 -87.5t67.5 -56t105 -19.5zM490 982h284l-180 -180h-252z" />
    <glyph glyph-name="Ocircumflex" unicode="&#xd4;" horiz-adv-x="976" 
d="M488 -18q-137 0 -239.5 49t-159.5 137.5t-57 206.5t57 206.5t159.5 137.5t239.5 49t239.5 -49t159.5 -137.5t57 -206.5t-57 -206.5t-159.5 -137.5t-239.5 -49zM488 212q61 0 105 19.5t67.5 56t23.5 87.5t-23.5 87.5t-67.5 56t-105 19.5t-105 -19.5t-67.5 -56t-23.5 -87.5
t23.5 -87.5t67.5 -56t105 -19.5zM357 982h262l155 -180h-200l-146 104h120l-146 -104h-200z" />
    <glyph glyph-name="Otilde" unicode="&#xd5;" horiz-adv-x="976" 
d="M488 -18q-137 0 -239.5 49t-159.5 137.5t-57 206.5t57 206.5t159.5 137.5t239.5 49t239.5 -49t159.5 -137.5t57 -206.5t-57 -206.5t-159.5 -137.5t-239.5 -49zM488 212q61 0 105 19.5t67.5 56t23.5 87.5t-23.5 87.5t-67.5 56t-105 19.5t-105 -19.5t-67.5 -56t-23.5 -87.5
t23.5 -87.5t67.5 -56t105 -19.5zM192 806q13 89 59.5 139.5t139.5 50.5q28 0 53.5 -6.5t48 -15t42.5 -15t37 -6.5q20 0 33.5 9t17.5 27h160q-13 -88 -59.5 -139t-139.5 -51q-28 0 -53.5 6.5t-48 15t-42.5 15t-37 6.5q-20 0 -33.5 -9t-17.5 -27h-160z" />
    <glyph glyph-name="Odieresis" unicode="&#xd6;" horiz-adv-x="976" 
d="M488 -18q-137 0 -239.5 49t-159.5 137.5t-57 206.5t57 206.5t159.5 137.5t239.5 49t239.5 -49t159.5 -137.5t57 -206.5t-57 -206.5t-159.5 -137.5t-239.5 -49zM488 212q61 0 105 19.5t67.5 56t23.5 87.5t-23.5 87.5t-67.5 56t-105 19.5t-105 -19.5t-67.5 -56t-23.5 -87.5
t23.5 -87.5t67.5 -56t105 -19.5zM328 792q-60 0 -95.5 29t-35.5 82q0 50 35.5 78.5t95.5 28.5t95.5 -28.5t35.5 -78.5q0 -53 -35.5 -82t-95.5 -29zM648 792q-60 0 -95.5 29t-35.5 82q0 50 35.5 78.5t95.5 28.5t95.5 -28.5t35.5 -78.5q0 -53 -35.5 -82t-95.5 -29z" />
    <glyph glyph-name="multiply" unicode="&#xd7;" horiz-adv-x="620" 
d="M49 213l396 396l127 -128l-396 -396zM49 481l127 128l396 -396l-127 -128z" />
    <glyph glyph-name="Oslash" unicode="&#xd8;" horiz-adv-x="976" 
d="M703 770h221l-651 -790h-221zM488 -18q-137 0 -239.5 49t-159.5 137.5t-57 206.5t57 206.5t159.5 137.5t239.5 49q103 0 186.5 -28t144 -80t93 -124t32.5 -161q0 -118 -57 -206.5t-159.5 -137.5t-239.5 -49zM488 194q64 0 110 21.5t71 62.5t25 97q0 57 -25 97.5t-71 62
t-110 21.5t-110 -21.5t-71 -62t-25 -97.5q0 -56 25 -97t71 -62.5t110 -21.5z" />
    <glyph glyph-name="Ugrave" unicode="&#xd9;" horiz-adv-x="889" 
d="M308 344q0 -41 14.5 -70.5t44.5 -45.5t77 -16q48 0 78 15.5t44 45.5t14 71v406h258v-420q0 -105 -49 -183t-137.5 -121.5t-207.5 -43.5q-118 0 -206.5 43.5t-138 121.5t-49.5 183v420h258v-406zM433 982l148 -180h-252l-180 180h284z" />
    <glyph glyph-name="Uacute" unicode="&#xda;" horiz-adv-x="889" 
d="M308 344q0 -41 14.5 -70.5t44.5 -45.5t77 -16q48 0 78 15.5t44 45.5t14 71v406h258v-420q0 -105 -49 -183t-137.5 -121.5t-207.5 -43.5q-118 0 -206.5 43.5t-138 121.5t-49.5 183v420h258v-406zM446 982h284l-180 -180h-252z" />
    <glyph glyph-name="Ucircumflex" unicode="&#xdb;" horiz-adv-x="889" 
d="M308 344q0 -41 14.5 -70.5t44.5 -45.5t77 -16q48 0 78 15.5t44 45.5t14 71v406h258v-420q0 -105 -49 -183t-137.5 -121.5t-207.5 -43.5q-118 0 -206.5 43.5t-138 121.5t-49.5 183v420h258v-406zM313 982h262l155 -180h-200l-146 104h120l-146 -104h-200z" />
    <glyph glyph-name="Udieresis" unicode="&#xdc;" horiz-adv-x="889" 
d="M308 344q0 -41 14.5 -70.5t44.5 -45.5t77 -16q48 0 78 15.5t44 45.5t14 71v406h258v-420q0 -105 -49 -183t-137.5 -121.5t-207.5 -43.5q-118 0 -206.5 43.5t-138 121.5t-49.5 183v420h258v-406zM284 792q-60 0 -95.5 29t-35.5 82q0 50 35.5 78.5t95.5 28.5t95.5 -28.5
t35.5 -78.5q0 -53 -35.5 -82t-95.5 -29zM604 792q-60 0 -95.5 29t-35.5 82q0 50 35.5 78.5t95.5 28.5t95.5 -28.5t35.5 -78.5q0 -53 -35.5 -82t-95.5 -29z" />
    <glyph glyph-name="Yacute" unicode="&#xdd;" horiz-adv-x="957" 
d="M350 0v370h258v-370h-258zM0 750h283l249 -321h-107l248 321h283l-394 -506l-167 -3zM480 982h284l-180 -180h-252z" />
    <glyph glyph-name="Thorn" unicode="&#xde;" horiz-adv-x="854" 
d="M60 750h258v-750h-258v750zM497 106h-269v197h252q38 0 59 19.5t21 56.5t-21 56.5t-59 19.5h-251v197h268q102 0 174.5 -33.5t110.5 -95t38 -144.5t-38 -144.5t-110.5 -95t-174.5 -33.5z" />
    <glyph glyph-name="germandbls" unicode="&#xdf;" horiz-adv-x="939" 
d="M47 0v450q0 102 50.5 178t144 118t220.5 42q105 0 184 -24t122.5 -68t43.5 -104q0 -71 -63 -120.5t-172 -63.5l25 17q153 -6 234 -61.5t81 -144.5q0 -73 -40.5 -126t-114.5 -82t-175 -29q-73 0 -128 9t-119 28v187q69 -25 114 -35t91 -10q59 0 87.5 18.5t28.5 51.5
q0 24 -14 39.5t-42 23.5t-69 8h-95v165h39q41 0 63.5 16t22.5 44q0 36 -31.5 55.5t-88.5 19.5q-69 0 -107 -33.5t-38 -94.5v-474h-254z" />
    <glyph glyph-name="agrave" unicode="&#xe0;" horiz-adv-x="852" 
d="M555 0l-29 203l29 84l-29 83l29 205h264l-40 -287l40 -288h-264zM608 287q-10 -92 -49.5 -160.5t-103 -106.5t-145.5 -38q-84 0 -147.5 38t-99 107t-35.5 160q0 92 35.5 161t99 107t147.5 38q82 0 145.5 -37.5t103.5 -106t49 -162.5zM284 287q0 -33 13.5 -58.5t38 -40.5
t56.5 -15q33 0 64 15t54.5 40.5t32.5 58.5q-9 33 -32.5 59t-54.5 41t-64 15q-32 0 -56.5 -15t-38 -41t-13.5 -59zM418 827l128 -200h-232l-140 200h244z" />
    <glyph glyph-name="aacute" unicode="&#xe1;" horiz-adv-x="852" 
d="M555 0l-29 203l29 84l-29 83l29 205h264l-40 -287l40 -288h-264zM608 287q-10 -92 -49.5 -160.5t-103 -106.5t-145.5 -38q-84 0 -147.5 38t-99 107t-35.5 160q0 92 35.5 161t99 107t147.5 38q82 0 145.5 -37.5t103.5 -106t49 -162.5zM284 287q0 -33 13.5 -58.5t38 -40.5
t56.5 -15q33 0 64 15t54.5 40.5t32.5 58.5q-9 33 -32.5 59t-54.5 41t-64 15q-32 0 -56.5 -15t-38 -41t-13.5 -59zM420 827h244l-140 -200h-232z" />
    <glyph glyph-name="acircumflex" unicode="&#xe2;" horiz-adv-x="852" 
d="M555 0l-29 203l29 84l-29 83l29 205h264l-40 -287l40 -288h-264zM608 287q-10 -92 -49.5 -160.5t-103 -106.5t-145.5 -38q-84 0 -147.5 38t-99 107t-35.5 160q0 92 35.5 161t99 107t147.5 38q82 0 145.5 -37.5t103.5 -106t49 -162.5zM284 287q0 -33 13.5 -58.5t38 -40.5
t56.5 -15q33 0 64 15t54.5 40.5t32.5 58.5q-9 33 -32.5 59t-54.5 41t-64 15q-32 0 -56.5 -15t-38 -41t-13.5 -59zM301 827h256l143 -200h-195l-136 144h120l-136 -144h-195z" />
    <glyph glyph-name="atilde" unicode="&#xe3;" horiz-adv-x="852" 
d="M555 0l-29 203l29 84l-29 83l29 205h264l-40 -287l40 -288h-264zM608 287q-10 -92 -49.5 -160.5t-103 -106.5t-145.5 -38q-84 0 -147.5 38t-99 107t-35.5 160q0 92 35.5 161t99 107t147.5 38q82 0 145.5 -37.5t103.5 -106t49 -162.5zM284 287q0 -33 13.5 -58.5t38 -40.5
t56.5 -15q33 0 64 15t54.5 40.5t32.5 58.5q-9 33 -32.5 59t-54.5 41t-64 15q-32 0 -56.5 -15t-38 -41t-13.5 -59zM163 627q5 95 43 150t116 55q28 0 54 -7t48.5 -16.5t42.5 -17t36 -7.5q20 0 33.5 12t17.5 34h140q-4 -95 -42.5 -150t-116.5 -55q-28 0 -54 7.5t-48.5 17
t-42.5 16.5t-36 7q-20 0 -33.5 -12t-17.5 -34h-140z" />
    <glyph glyph-name="adieresis" unicode="&#xe4;" horiz-adv-x="852" 
d="M555 0l-29 203l29 84l-29 83l29 205h264l-40 -287l40 -288h-264zM608 287q-10 -92 -49.5 -160.5t-103 -106.5t-145.5 -38q-84 0 -147.5 38t-99 107t-35.5 160q0 92 35.5 161t99 107t147.5 38q82 0 145.5 -37.5t103.5 -106t49 -162.5zM284 287q0 -33 13.5 -58.5t38 -40.5
t56.5 -15q33 0 64 15t54.5 40.5t32.5 58.5q-9 33 -32.5 59t-54.5 41t-64 15q-32 0 -56.5 -15t-38 -41t-13.5 -59zM272 617q-60 0 -95.5 29t-35.5 82q0 50 35.5 78.5t95.5 28.5t95.5 -28.5t35.5 -78.5q0 -53 -35.5 -82t-95.5 -29zM586 617q-60 0 -95.5 29t-35.5 82
q0 50 35.5 78.5t95.5 28.5t95.5 -28.5t35.5 -78.5q0 -53 -35.5 -82t-95.5 -29z" />
    <glyph glyph-name="aring" unicode="&#xe5;" horiz-adv-x="852" 
d="M555 0l-29 203l29 84l-29 83l29 205h264l-40 -287l40 -288h-264zM608 287q-10 -92 -49.5 -160.5t-103 -106.5t-145.5 -38q-84 0 -147.5 38t-99 107t-35.5 160q0 92 35.5 161t99 107t147.5 38q82 0 145.5 -37.5t103.5 -106t49 -162.5zM284 287q0 -33 13.5 -58.5t38 -40.5
t56.5 -15q33 0 64 15t54.5 40.5t32.5 58.5q-9 33 -32.5 59t-54.5 41t-64 15q-32 0 -56.5 -15t-38 -41t-13.5 -59zM429 617q-99 0 -154.5 40t-55.5 111q0 70 55.5 109.5t154.5 39.5t154.5 -39.5t55.5 -109.5q0 -71 -55.5 -111t-154.5 -40zM429 713q35 0 54 14.5t19 39.5
q0 26 -19 40t-54 14q-34 0 -53.5 -14t-19.5 -40q0 -25 19.5 -39.5t53.5 -14.5z" />
    <glyph glyph-name="ae" unicode="&#xe6;" horiz-adv-x="1270" 
d="M975 -18q-112 0 -192 39.5t-123 108.5t-43 157q0 94 38.5 162.5t109 106t165.5 37.5q102 0 173 -43t106.5 -123.5t30.5 -192.5h-477v117h327l-55 -38q-4 38 -19 64.5t-40 40t-59 13.5q-35 0 -61.5 -15t-40.5 -42t-14 -63q0 -45 22 -78t69 -51t120 -18q60 0 115 10.5
t97 28.5v-144q-35 -23 -71 -40.5t-78.5 -27t-99.5 -9.5zM541 0l-20 203l29 84l-29 83l20 205h183l20 -281l-20 -294h-183zM608 287q-10 -92 -49.5 -160.5t-103 -106.5t-145.5 -38q-84 0 -147.5 38t-99 107t-35.5 160q0 92 35.5 161t99 107t147.5 38q82 0 145.5 -37.5
t103.5 -106t49 -162.5zM284 287q0 -33 13.5 -58.5t38 -40.5t56.5 -15q33 0 64 15t54.5 40.5t32.5 58.5q-9 33 -32.5 59t-54.5 41t-64 15q-32 0 -56.5 -15t-38 -41t-13.5 -59z" />
    <glyph glyph-name="ccedilla" unicode="&#xe7;" horiz-adv-x="787" 
d="M766 253q-7 -81 -57 -142t-130.5 -95t-181.5 -34q-110 0 -194 38.5t-131 107.5t-47 159q0 91 47 159.5t131 107.5t194 39q101 0 181.5 -34t130.5 -94.5t57 -142.5h-251q-9 43 -40.5 64.5t-77.5 21.5q-35 0 -61.5 -13.5t-40.5 -40.5t-14 -67t14 -66.5t40.5 -40t61.5 -13.5
q46 0 77.5 23.5t40.5 62.5h251zM352 22h116l-60 -91l-57 4q25 11 54 18t64 7q71 0 108.5 -26.5t37.5 -73.5q0 -50 -49.5 -83.5t-147.5 -33.5q-85 0 -140.5 30.5t-71.5 84.5h140q6 -10 23 -17.5t49 -7.5t48 9.5t16 22.5t-12.5 22t-41.5 9q-12 0 -24.5 -2t-22.5 -7h-117z" />
    <glyph glyph-name="egrave" unicode="&#xe8;" horiz-adv-x="750" 
d="M399 -18q-107 0 -191.5 38.5t-133.5 108t-49 161.5q0 91 47.5 159t129.5 106t184 38q107 0 182 -45.5t115 -129t40 -197.5h-490v139h342l-68 -47q-4 35 -18.5 59t-37.5 36.5t-55 12.5q-37 0 -62.5 -14.5t-39 -39.5t-13.5 -56q0 -48 21.5 -80.5t65.5 -49.5t111 -17
q62 0 121 14t109 40v-154q-64 -40 -139.5 -61t-170.5 -21zM375 827l128 -200h-232l-140 200h244z" />
    <glyph glyph-name="eacute" unicode="&#xe9;" horiz-adv-x="750" 
d="M399 -18q-107 0 -191.5 38.5t-133.5 108t-49 161.5q0 91 47.5 159t129.5 106t184 38q107 0 182 -45.5t115 -129t40 -197.5h-490v139h342l-68 -47q-4 35 -18.5 59t-37.5 36.5t-55 12.5q-37 0 -62.5 -14.5t-39 -39.5t-13.5 -56q0 -48 21.5 -80.5t65.5 -49.5t111 -17
q62 0 121 14t109 40v-154q-64 -40 -139.5 -61t-170.5 -21zM377 827h244l-140 -200h-232z" />
    <glyph glyph-name="ecircumflex" unicode="&#xea;" horiz-adv-x="750" 
d="M399 -18q-107 0 -191.5 38.5t-133.5 108t-49 161.5q0 91 47.5 159t129.5 106t184 38q107 0 182 -45.5t115 -129t40 -197.5h-490v139h342l-68 -47q-4 35 -18.5 59t-37.5 36.5t-55 12.5q-37 0 -62.5 -14.5t-39 -39.5t-13.5 -56q0 -48 21.5 -80.5t65.5 -49.5t111 -17
q62 0 121 14t109 40v-154q-64 -40 -139.5 -61t-170.5 -21zM258 827h256l143 -200h-195l-136 144h120l-136 -144h-195z" />
    <glyph glyph-name="edieresis" unicode="&#xeb;" horiz-adv-x="750" 
d="M399 -18q-107 0 -191.5 38.5t-133.5 108t-49 161.5q0 91 47.5 159t129.5 106t184 38q107 0 182 -45.5t115 -129t40 -197.5h-490v139h342l-68 -47q-4 35 -18.5 59t-37.5 36.5t-55 12.5q-37 0 -62.5 -14.5t-39 -39.5t-13.5 -56q0 -48 21.5 -80.5t65.5 -49.5t111 -17
q62 0 121 14t109 40v-154q-64 -40 -139.5 -61t-170.5 -21zM229 617q-60 0 -95.5 29t-35.5 82q0 50 35.5 78.5t95.5 28.5t95.5 -28.5t35.5 -78.5q0 -53 -35.5 -82t-95.5 -29zM543 617q-60 0 -95.5 29t-35.5 82q0 50 35.5 78.5t95.5 28.5t95.5 -28.5t35.5 -78.5
q0 -53 -35.5 -82t-95.5 -29z" />
    <glyph glyph-name="igrave" unicode="&#xec;" horiz-adv-x="350" 
d="M48 587l127 -26l127 26v-587h-254v587zM164 827l128 -200h-232l-140 200h244z" />
    <glyph glyph-name="iacute" unicode="&#xed;" horiz-adv-x="350" 
d="M48 587l127 -26l127 26v-587h-254v587zM166 827h244l-140 -200h-232z" />
    <glyph glyph-name="icircumflex" unicode="&#xee;" horiz-adv-x="350" 
d="M47 827h256l88 -200h-161l-86 133h62l-86 -133h-161zM48 587l127 -26l127 26v-587h-254v587z" />
    <glyph glyph-name="idieresis" unicode="&#xef;" horiz-adv-x="350" 
d="M65 617q-48 0 -74.5 30.5t-26.5 85.5q0 56 26.5 86t74.5 30t74.5 -30t26.5 -86q0 -55 -26.5 -85.5t-74.5 -30.5zM285 617q-48 0 -74.5 30.5t-26.5 85.5q0 56 26.5 86t74.5 30t74.5 -30t26.5 -86q0 -55 -26.5 -85.5t-74.5 -30.5zM48 587l127 -26l127 26v-587h-254v587z
" />
    <glyph glyph-name="eth" unicode="&#xf0;" horiz-adv-x="804" 
d="M404 -18q-114 0 -199.5 35t-133 98t-47.5 147q0 78 42.5 136.5t118.5 91t174 32.5q53 0 99.5 -9.5t86.5 -32.5h-17q-30 49 -73 96.5t-97 91.5t-117 82l245 38q105 -80 168.5 -158t92 -154.5t28.5 -154.5q0 -106 -46 -182t-129.5 -116.5t-195.5 -40.5zM404 167
q40 0 67.5 10.5t42 31t14.5 48.5q0 29 -14.5 49t-42 30.5t-67.5 10.5q-39 0 -67 -10.5t-42.5 -30.5t-14.5 -49q0 -28 14.5 -48.5t42.5 -31t67 -10.5zM249 545v115l472 90v-115z" />
    <glyph glyph-name="ntilde" unicode="&#xf1;" horiz-adv-x="820" 
d="M21 575h254l40 -245v-330h-254v369zM514 593q84 0 143 -33.5t90.5 -94t31.5 -141.5v-324h-254v288q0 48 -26.5 74t-74.5 26q-34 0 -58.5 -13.5t-37.5 -39t-13 -61.5l-75 38q14 94 54 156.5t97 93.5t123 31zM154 627q5 95 43 150t116 55q28 0 54 -7t48.5 -16.5t42.5 -17
t36 -7.5q20 0 33.5 12t17.5 34h140q-4 -95 -42.5 -150t-116.5 -55q-28 0 -54 7.5t-48.5 17t-42.5 16.5t-36 7q-20 0 -33.5 -12t-17.5 -34h-140z" />
    <glyph glyph-name="ograve" unicode="&#xf2;" horiz-adv-x="810" 
d="M405 -18q-114 0 -199.5 38t-133 107t-47.5 160q0 92 47.5 161t133 107t199.5 38t199.5 -38t133 -107t47.5 -161q0 -91 -47.5 -160t-133 -107t-199.5 -38zM405 167q40 0 67.5 14t42 41t14.5 65q0 39 -14.5 66t-42 41t-67.5 14q-39 0 -67 -14t-42.5 -41t-14.5 -66
q0 -38 14.5 -65t42.5 -41t67 -14zM394 827l128 -200h-232l-140 200h244z" />
    <glyph glyph-name="oacute" unicode="&#xf3;" horiz-adv-x="810" 
d="M405 -18q-114 0 -199.5 38t-133 107t-47.5 160q0 92 47.5 161t133 107t199.5 38t199.5 -38t133 -107t47.5 -161q0 -91 -47.5 -160t-133 -107t-199.5 -38zM405 167q40 0 67.5 14t42 41t14.5 65q0 39 -14.5 66t-42 41t-67.5 14q-39 0 -67 -14t-42.5 -41t-14.5 -65
q0 -39 14.5 -66t42.5 -41t67 -14zM396 827h244l-140 -200h-232z" />
    <glyph glyph-name="ocircumflex" unicode="&#xf4;" horiz-adv-x="810" 
d="M405 -18q-114 0 -199.5 38t-133 107t-47.5 160q0 92 47.5 161t133 107t199.5 38t199.5 -38t133 -107t47.5 -161q0 -91 -47.5 -160t-133 -107t-199.5 -38zM405 167q40 0 67.5 14t42 41t14.5 65q0 39 -14.5 66t-42 41t-67.5 14q-39 0 -67 -14t-42.5 -41t-14.5 -65
q0 -39 14.5 -66t42.5 -41t67 -14zM277 827h256l143 -200h-195l-136 144h120l-136 -144h-195z" />
    <glyph glyph-name="otilde" unicode="&#xf5;" horiz-adv-x="810" 
d="M405 -18q-114 0 -199.5 38t-133 107t-47.5 160q0 92 47.5 161t133 107t199.5 38t199.5 -38t133 -107t47.5 -161q0 -91 -47.5 -160t-133 -107t-199.5 -38zM405 167q40 0 67.5 14t42 41t14.5 65q0 39 -14.5 66t-42 41t-67.5 14q-39 0 -67 -14t-42.5 -41t-14.5 -65
q0 -39 14.5 -66t42.5 -41t67 -14zM139 627q5 95 43 150t116 55q28 0 54 -7t48.5 -16.5t42.5 -17t36 -7.5q20 0 33.5 12t17.5 34h140q-4 -95 -42.5 -150t-116.5 -55q-28 0 -54 7.5t-48.5 17t-42.5 16.5t-36 7q-20 0 -33.5 -12t-17.5 -34h-140z" />
    <glyph glyph-name="odieresis" unicode="&#xf6;" horiz-adv-x="810" 
d="M405 -18q-114 0 -199.5 38t-133 107t-47.5 160q0 92 47.5 161t133 107t199.5 38t199.5 -38t133 -107t47.5 -161q0 -91 -47.5 -160t-133 -107t-199.5 -38zM405 167q40 0 67.5 14t42 41t14.5 65q0 39 -14.5 66t-42 41t-67.5 14q-39 0 -67 -14t-42.5 -41t-14.5 -65
q0 -39 14.5 -66t42.5 -41t67 -14zM248 617q-60 0 -95.5 29t-35.5 82q0 50 35.5 78.5t95.5 28.5t95.5 -28.5t35.5 -78.5q0 -53 -35.5 -82t-95.5 -29zM562 617q-60 0 -95.5 29t-35.5 82q0 50 35.5 78.5t95.5 28.5t95.5 -28.5t35.5 -78.5q0 -53 -35.5 -82t-95.5 -29z" />
    <glyph glyph-name="divide" unicode="&#xf7;" horiz-adv-x="620" 
d="M300 475q-45 0 -73.5 27t-28.5 70t28.5 70t73.5 27t73.5 -27t28.5 -70t-28.5 -70t-73.5 -27zM300 39q-45 0 -73.5 27t-28.5 70t28.5 70t73.5 27t73.5 -27t28.5 -70t-28.5 -70t-73.5 -27zM30 444h560v-180h-560v180z" />
    <glyph glyph-name="oslash" unicode="&#xf8;" horiz-adv-x="810" 
d="M554 603h221l-519 -631h-221zM405 -18q-114 0 -199.5 38t-133 107t-47.5 160q0 92 47.5 161t133 107t199.5 38t199.5 -38t133 -107t47.5 -161q0 -91 -47.5 -160t-133 -107t-199.5 -38zM405 147q44 0 75 16.5t47 48t16 75.5q0 45 -16 76.5t-47 48t-75 16.5t-75 -16.5
t-47 -48t-16 -76.5q0 -44 16 -75.5t47 -48t75 -16.5z" />
    <glyph glyph-name="ugrave" unicode="&#xf9;" horiz-adv-x="807" 
d="M299 -17q-81 0 -139 33.5t-88.5 94t-30.5 140.5v324h254v-288q0 -47 24.5 -73t69.5 -26q35 0 57.5 12.5t34 38t11.5 62.5l75 -38q-13 -93 -52.5 -155.5t-95 -93.5t-120.5 -31zM532 0l-40 245v330h254v-369l40 -206h-254zM393 827l128 -200h-232l-140 200h244z" />
    <glyph glyph-name="uacute" unicode="&#xfa;" horiz-adv-x="807" 
d="M299 -17q-81 0 -139 33.5t-88.5 94t-30.5 140.5v324h254v-288q0 -47 24.5 -73t69.5 -26q35 0 57.5 12.5t34 38t11.5 62.5l75 -38q-13 -93 -52.5 -155.5t-95 -93.5t-120.5 -31zM532 0l-40 245v330h254v-369l40 -206h-254zM395 827h244l-140 -200h-232z" />
    <glyph glyph-name="ucircumflex" unicode="&#xfb;" horiz-adv-x="807" 
d="M299 -17q-81 0 -139 33.5t-88.5 94t-30.5 140.5v324h254v-288q0 -47 24.5 -73t69.5 -26q35 0 57.5 12.5t34 38t11.5 62.5l75 -38q-13 -93 -52.5 -155.5t-95 -93.5t-120.5 -31zM532 0l-40 245v330h254v-369l40 -206h-254zM276 827h256l143 -200h-195l-136 144h120
l-136 -144h-195z" />
    <glyph glyph-name="udieresis" unicode="&#xfc;" horiz-adv-x="807" 
d="M299 -17q-81 0 -139 33.5t-88.5 94t-30.5 140.5v324h254v-288q0 -47 24.5 -73t69.5 -26q35 0 57.5 12.5t34 38t11.5 62.5l75 -38q-13 -93 -52.5 -155.5t-95 -93.5t-120.5 -31zM532 0l-40 245v330h254v-369l40 -206h-254zM247 617q-60 0 -95.5 29t-35.5 82q0 50 35.5 78.5
t95.5 28.5t95.5 -28.5t35.5 -78.5q0 -53 -35.5 -82t-95.5 -29zM561 617q-60 0 -95.5 29t-35.5 82q0 50 35.5 78.5t95.5 28.5t95.5 -28.5t35.5 -78.5q0 -53 -35.5 -82t-95.5 -29z" />
    <glyph glyph-name="yacute" unicode="&#xfd;" horiz-adv-x="818" 
d="M270 -183q-72 0 -126.5 17.5t-108.5 57.5v170q53 -34 98.5 -48.5t98.5 -14.5q42 0 73.5 17.5t51.5 67.5l195 491h270l-262 -567q-33 -72 -80.5 -114t-101.5 -59.5t-108 -17.5zM238 77l-231 498h280l193 -498h-242zM409 827h244l-140 -200h-232z" />
    <glyph glyph-name="thorn" unicode="&#xfe;" horiz-adv-x="834" 
d="M48 770h254v-337l-10 -28v-190l10 -55v-325h-254v935zM227 287q10 94 49.5 162.5t103.5 106t145 37.5q85 0 148 -38t98.5 -107t35.5 -161q0 -91 -35.5 -160t-98.5 -107t-148 -38q-82 0 -145.5 38t-102.5 106.5t-50 160.5zM551 287q0 33 -13.5 59t-38 41t-56.5 15
q-33 0 -64 -15t-54 -41t-33 -59q10 -33 33 -58.5t54 -40.5t64 -15q32 0 56.5 15t38 40.5t13.5 58.5z" />
    <glyph glyph-name="ydieresis" unicode="&#xff;" horiz-adv-x="818" 
d="M270 -183q-72 0 -126.5 17.5t-108.5 57.5v170q53 -34 98.5 -48.5t98.5 -14.5q42 0 73.5 17.5t51.5 67.5l195 491h270l-262 -567q-33 -72 -80.5 -114t-101.5 -59.5t-108 -17.5zM238 77l-231 498h280l193 -498h-242zM261 617q-60 0 -95.5 29t-35.5 82q0 50 35.5 78.5
t95.5 28.5t95.5 -28.5t35.5 -78.5q0 -53 -35.5 -82t-95.5 -29zM575 617q-60 0 -95.5 29t-35.5 82q0 50 35.5 78.5t95.5 28.5t95.5 -28.5t35.5 -78.5q0 -53 -35.5 -82t-95.5 -29z" />
    <glyph glyph-name="Amacron" unicode="&#x100;" horiz-adv-x="996" 
d="M238 126v205h511v-205h-511zM670 750l329 -750h-275l-259 636h66l-259 -636h-275l329 750h344zM236 817v147h524v-147h-524z" />
    <glyph glyph-name="amacron" unicode="&#x101;" horiz-adv-x="852" 
d="M555 0l-29 203l29 84l-29 83l29 205h264l-40 -287l40 -288h-264zM608 287q-10 -92 -49.5 -160.5t-103 -106.5t-145.5 -38q-84 0 -147.5 38t-99 107t-35.5 160q0 92 35.5 161t99 107t147.5 38q82 0 145.5 -37.5t103.5 -106t49 -162.5zM284 287q0 -33 13.5 -58.5t38 -40.5
t56.5 -15q33 0 64 15t54.5 40.5t32.5 58.5q-9 33 -32.5 59t-54.5 41t-64 15q-32 0 -56.5 -15t-38 -41t-13.5 -59zM167 642v147h524v-147h-524z" />
    <glyph glyph-name="Abreve" unicode="&#x102;" horiz-adv-x="996" 
d="M238 126v205h511v-205h-511zM670 750l329 -750h-275l-259 636h66l-259 -636h-275l329 750h344zM218 987h190q16 -22 38 -33t52 -11t52 11t38 33h190q-28 -100 -102 -147.5t-178 -47.5q-103 0 -177 47.5t-103 147.5z" />
    <glyph glyph-name="abreve" unicode="&#x103;" horiz-adv-x="852" 
d="M555 0l-29 203l29 84l-29 83l29 205h264l-40 -287l40 -288h-264zM608 287q-10 -92 -49.5 -160.5t-103 -106.5t-145.5 -38q-84 0 -147.5 38t-99 107t-35.5 160q0 92 35.5 161t99 107t147.5 38q82 0 145.5 -37.5t103.5 -106t49 -162.5zM284 287q0 -33 13.5 -58.5t38 -40.5
t56.5 -15q33 0 64 15t54.5 40.5t32.5 58.5q-9 33 -32.5 59t-54.5 41t-64 15q-32 0 -56.5 -15t-38 -41t-13.5 -59zM164 827h183q7 -28 28.5 -44t53.5 -16t53.5 16t28.5 44h183q-16 -97 -84 -153.5t-181 -56.5t-180.5 56.5t-84.5 153.5z" />
    <glyph glyph-name="Aogonek" unicode="&#x104;" horiz-adv-x="996" 
d="M238 126v205h511v-205h-511zM670 750l329 -750h-275l-259 636h66l-259 -636h-275l329 750h344zM901 22l75 -10v-12h23q-38 -9 -65 -20t-40.5 -21.5t-13.5 -21.5q0 -26 62 -26q17 0 30.5 2t26.5 5v-124q-13 -5 -48 -10.5t-73 -5.5q-77 0 -124.5 27t-47.5 71q0 52 49.5 88
t145.5 58z" />
    <glyph glyph-name="aogonek" unicode="&#x105;" horiz-adv-x="852" 
d="M555 0l-29 203l29 84l-29 83l29 205h264l-40 -287l40 -288h-264zM608 287q-10 -92 -49.5 -160.5t-103 -106.5t-145.5 -38q-84 0 -147.5 38t-99 107t-35.5 160q0 92 35.5 161t99 107t147.5 38q82 0 145.5 -37.5t103.5 -106t49 -162.5zM284 287q0 -33 13.5 -58.5t38 -40.5
t56.5 -15q33 0 64 15t54.5 40.5t32.5 58.5q-9 33 -32.5 59t-54.5 41t-64 15q-32 0 -56.5 -15t-38 -41t-13.5 -59zM721 22l75 -10v-12h23q-38 -9 -65 -20t-40.5 -21.5t-13.5 -21.5q0 -26 62 -26q17 0 30.5 2t26.5 5v-124q-13 -5 -48 -10.5t-73 -5.5q-77 0 -124.5 27t-47.5 71
q0 52 49.5 88t145.5 58z" />
    <glyph glyph-name="Cacute" unicode="&#x106;" horiz-adv-x="949" 
d="M922 325q-12 -103 -70.5 -180t-154.5 -120t-220 -43q-134 0 -234 49t-155.5 137.5t-55.5 206.5t55.5 206.5t155.5 137.5t234 49q124 0 220 -43t154.5 -120t70.5 -180h-259q-9 39 -33 66.5t-62.5 42t-90.5 14.5q-58 0 -99.5 -20.5t-63.5 -59.5t-22 -93t22 -92.5
t63.5 -59.5t99.5 -21q52 0 90.5 13.5t62.5 41t33 68.5h259zM479 982h284l-180 -180h-252z" />
    <glyph glyph-name="cacute" unicode="&#x107;" horiz-adv-x="787" 
d="M766 253q-7 -81 -57 -142t-130.5 -95t-181.5 -34q-110 0 -194 38.5t-131 107.5t-47 159q0 91 47 159.5t131 107.5t194 39q101 0 181.5 -34t130.5 -94.5t57 -142.5h-251q-9 43 -40.5 64.5t-77.5 21.5q-35 0 -61.5 -13.5t-40.5 -40.5t-14 -67t14 -66.5t40.5 -40t61.5 -13.5
q46 0 77.5 23.5t40.5 62.5h251zM390 827h244l-140 -200h-232z" />
    <glyph glyph-name="Ccircumflex" unicode="&#x108;" horiz-adv-x="949" 
d="M922 325q-12 -103 -70.5 -180t-154.5 -120t-220 -43q-134 0 -234 49t-155.5 137.5t-55.5 206.5t55.5 206.5t155.5 137.5t234 49q124 0 220 -43t154.5 -120t70.5 -180h-259q-9 39 -33 66.5t-62.5 42t-90.5 14.5q-58 0 -99.5 -20.5t-63.5 -59.5t-22 -93t22 -92.5
t63.5 -59.5t99.5 -21q52 0 90.5 13.5t62.5 41t33 68.5h259zM346 982h262l155 -180h-200l-146 104h120l-146 -104h-200z" />
    <glyph glyph-name="ccircumflex" unicode="&#x109;" horiz-adv-x="787" 
d="M766 253q-7 -81 -57 -142t-130.5 -95t-181.5 -34q-110 0 -194 38.5t-131 107.5t-47 159q0 91 47 159.5t131 107.5t194 39q101 0 181.5 -34t130.5 -94.5t57 -142.5h-251q-9 43 -40.5 64.5t-77.5 21.5q-35 0 -61.5 -13.5t-40.5 -40.5t-14 -67t14 -66.5t40.5 -40t61.5 -13.5
q46 0 77.5 23.5t40.5 62.5h251zM271 827h256l143 -200h-195l-136 144h120l-136 -144h-195z" />
    <glyph glyph-name="Cdotaccent" unicode="&#x10a;" horiz-adv-x="949" 
d="M922 325q-12 -103 -70.5 -180t-154.5 -120t-220 -43q-134 0 -234 49t-155.5 137.5t-55.5 206.5t55.5 206.5t155.5 137.5t234 49q124 0 220 -43t154.5 -120t70.5 -180h-259q-9 39 -33 66.5t-62.5 42t-90.5 14.5q-58 0 -99.5 -20.5t-63.5 -59.5t-22 -93t22 -92.5
t63.5 -59.5t99.5 -21q52 0 90.5 13.5t62.5 41t33 68.5h259zM477 792q-64 0 -103 31t-39 85t39 85t103 31q65 0 103.5 -31t38.5 -85t-38.5 -85t-103.5 -31z" />
    <glyph glyph-name="cdotaccent" unicode="&#x10b;" horiz-adv-x="787" 
d="M766 253q-7 -81 -57 -142t-130.5 -95t-181.5 -34q-110 0 -194 38.5t-131 107.5t-47 159q0 91 47 159.5t131 107.5t194 39q101 0 181.5 -34t130.5 -94.5t57 -142.5h-251q-9 43 -40.5 64.5t-77.5 21.5q-35 0 -61.5 -13.5t-40.5 -40.5t-14 -67t14 -66.5t40.5 -40t61.5 -13.5
q46 0 77.5 23.5t40.5 62.5h251zM399 617q-64 0 -103 31t-39 85t39 85t103 31q65 0 103.5 -31t38.5 -85t-38.5 -85t-103.5 -31z" />
    <glyph glyph-name="Ccaron" unicode="&#x10c;" horiz-adv-x="949" 
d="M922 325q-12 -103 -70.5 -180t-154.5 -120t-220 -43q-134 0 -234 49t-155.5 137.5t-55.5 206.5t55.5 206.5t155.5 137.5t234 49q124 0 220 -43t154.5 -120t70.5 -180h-259q-9 39 -33 66.5t-62.5 42t-90.5 14.5q-58 0 -99.5 -20.5t-63.5 -59.5t-22 -93t22 -92.5
t63.5 -59.5t99.5 -21q52 0 90.5 13.5t62.5 41t33 68.5h259zM608 801h-262l-155 180h200l146 -104h-120l146 104h200z" />
    <glyph glyph-name="ccaron" unicode="&#x10d;" horiz-adv-x="787" 
d="M766 253q-7 -81 -57 -142t-130.5 -95t-181.5 -34q-110 0 -194 38.5t-131 107.5t-47 159q0 91 47 159.5t131 107.5t194 39q101 0 181.5 -34t130.5 -94.5t57 -142.5h-251q-9 43 -40.5 64.5t-77.5 21.5q-35 0 -61.5 -13.5t-40.5 -40.5t-14 -67t14 -66.5t40.5 -40t61.5 -13.5
q46 0 77.5 23.5t40.5 62.5h251zM527 627h-256l-143 200h195l136 -144h-120l136 144h195z" />
    <glyph glyph-name="Dcaron" unicode="&#x10e;" horiz-adv-x="946" 
d="M458 750q137 0 239.5 -46.5t159.5 -130.5t57 -198q0 -113 -57 -197.5t-159.5 -131t-239.5 -46.5h-398v750h398zM316 115l-116 115h278q55 0 94.5 17.5t60.5 50t21 77.5q0 46 -21 78t-60.5 49.5t-94.5 17.5h-278l116 115v-520zM579 801h-262l-155 180h200l146 -104h-120
l146 104h200z" />
    <glyph glyph-name="dcaron" unicode="&#x10f;" horiz-adv-x="886" 
d="M560 0l-29 214l39 71l-39 96l52 389h264l-64 -462l41 -308h-264zM608 287q-10 -92 -49.5 -160.5t-103 -106.5t-145.5 -38q-84 0 -147.5 38t-99 107t-35.5 160q0 92 35.5 161t99 107t147.5 38q82 0 145.5 -37.5t103.5 -106t49 -162.5zM284 287q0 -33 13.5 -58.5t38 -40.5
t56.5 -15q33 0 64 15t54.5 40.5t32.5 58.5q-9 33 -32.5 59t-54.5 41t-64 15q-32 0 -56.5 -15t-38 -41t-13.5 -59zM901 850h218l-75 -220h-170z" />
    <glyph glyph-name="Dcroat" unicode="&#x110;" horiz-adv-x="966" 
d="M28 457h453v-162h-453v162zM478 750q137 0 239.5 -46.5t159.5 -130.5t57 -198q0 -113 -57 -197.5t-159.5 -131t-239.5 -46.5h-398v750h398zM336 115l-116 115h278q55 0 94.5 17.5t60.5 50t21 77.5q0 46 -21 78t-60.5 49.5t-94.5 17.5h-278l116 115v-520z" />
    <glyph glyph-name="dcroat" unicode="&#x111;" horiz-adv-x="834" 
d="M310 -18q-84 0 -147.5 35.5t-99 100t-35.5 149.5q0 86 35.5 150.5t99 100t147.5 35.5q82 0 145.5 -35t103.5 -99t49 -152q-10 -86 -49.5 -150t-103 -99.5t-145.5 -35.5zM392 173q33 0 64 12.5t54.5 33.5t32.5 48q-9 28 -32.5 49t-54.5 33.5t-64 12.5q-32 0 -56.5 -12.5
t-38 -33.5t-13.5 -49q0 -27 13.5 -48t38 -33.5t56.5 -12.5zM533 0v120l31 55v170l-31 63v362h254v-770h-254zM287 581v146h565v-146h-565z" />
    <glyph glyph-name="Emacron" unicode="&#x112;" horiz-adv-x="812" 
d="M729 464v-178h-565v178h565zM341 375l-46 -279l-98 108h569v-204h-726l55 375l-55 375h721v-204h-564l98 108zM147 817v147h524v-147h-524z" />
    <glyph glyph-name="emacron" unicode="&#x113;" horiz-adv-x="750" 
d="M399 -18q-107 0 -191.5 38.5t-133.5 108t-49 161.5q0 91 47.5 159t129.5 106t184 38q107 0 182 -45.5t115 -129t40 -197.5h-490v139h342l-68 -47q-4 35 -18.5 59t-37.5 36.5t-55 12.5q-37 0 -62.5 -14.5t-39 -39.5t-13.5 -56q0 -48 21.5 -80.5t65.5 -49.5t111 -17
q62 0 121 14t109 40v-154q-64 -40 -139.5 -61t-170.5 -21zM124 642v147h524v-147h-524z" />
    <glyph glyph-name="Ebreve" unicode="&#x114;" horiz-adv-x="812" 
d="M729 464v-178h-565v178h565zM341 375l-46 -279l-98 108h569v-204h-726l55 375l-55 375h721v-204h-564l98 108zM129 987h190q16 -22 38 -33t52 -11t52 11t38 33h190q-28 -100 -102 -147.5t-178 -47.5q-103 0 -177 47.5t-103 147.5z" />
    <glyph glyph-name="ebreve" unicode="&#x115;" horiz-adv-x="750" 
d="M399 -18q-107 0 -191.5 38.5t-133.5 108t-49 161.5q0 91 47.5 159t129.5 106t184 38q107 0 182 -45.5t115 -129t40 -197.5h-490v139h342l-68 -47q-4 35 -18.5 59t-37.5 36.5t-55 12.5q-37 0 -62.5 -14.5t-39 -39.5t-13.5 -56q0 -48 21.5 -80.5t65.5 -49.5t111 -17
q62 0 121 14t109 40v-154q-64 -40 -139.5 -61t-170.5 -21zM121 827h183q7 -28 28.5 -44t53.5 -16t53.5 16t28.5 44h183q-16 -97 -84 -153.5t-181 -56.5t-180.5 56.5t-84.5 153.5z" />
    <glyph glyph-name="Edotaccent" unicode="&#x116;" horiz-adv-x="812" 
d="M729 464v-178h-565v178h565zM341 375l-46 -279l-98 108h569v-204h-726l55 375l-55 375h721v-204h-564l98 108zM409 792q-64 0 -103 31t-39 85t39 85t103 31q65 0 103.5 -31t38.5 -85t-38.5 -85t-103.5 -31z" />
    <glyph glyph-name="edotaccent" unicode="&#x117;" horiz-adv-x="750" 
d="M399 -18q-107 0 -191.5 38.5t-133.5 108t-49 161.5q0 91 47.5 159t129.5 106t184 38q107 0 182 -45.5t115 -129t40 -197.5h-490v139h342l-68 -47q-4 35 -18.5 59t-37.5 36.5t-55 12.5q-37 0 -62.5 -14.5t-39 -39.5t-13.5 -56q0 -48 21.5 -80.5t65.5 -49.5t111 -17
q62 0 121 14t109 40v-154q-64 -40 -139.5 -61t-170.5 -21zM386 617q-64 0 -103 31t-39 85t39 85t103 31q65 0 103.5 -31t38.5 -85t-38.5 -85t-103.5 -31z" />
    <glyph glyph-name="Eogonek" unicode="&#x118;" horiz-adv-x="812" 
d="M729 464v-178h-565v178h565zM341 375l-46 -279l-98 108h569v-204h-726l55 375l-55 375h721v-204h-564l98 108zM668 22l75 -10v-12h23q-38 -9 -65 -20t-40.5 -21.5t-13.5 -21.5q0 -26 62 -26q17 0 30.5 2t26.5 5v-124q-13 -5 -48 -10.5t-73 -5.5q-77 0 -124.5 27t-47.5 71
q0 52 49.5 88t145.5 58z" />
    <glyph glyph-name="eogonek" unicode="&#x119;" horiz-adv-x="751" 
d="M577 -222q-79 0 -128 27.5t-49 71.5q0 36 23.5 62.5t81.5 52.5q-26 -5 -53 -7.5t-53 -2.5q-107 0 -191.5 38.5t-133.5 108t-49 161.5q0 91 47.5 159t129.5 106t184 38q107 0 182 -44t115 -127t40 -201h-413q15 -19 40 -32t57.5 -19t69.5 -6q68 0 127 15t105 39v-154
q-7 -5 -18.5 -12.5t-21.5 -12.5q-38 -20 -58.5 -44t-20.5 -46q0 -38 51 -38q17 0 30.5 2t26.5 5v-124q-13 -5 -48 -10.5t-73 -5.5zM291 360h204q-13 29 -37 45t-62 16q-40 0 -67 -17.5t-38 -43.5z" />
    <glyph glyph-name="Ecaron" unicode="&#x11a;" horiz-adv-x="812" 
d="M729 464v-178h-565v178h565zM341 375l-46 -279l-98 108h569v-204h-726l55 375l-55 375h721v-204h-564l98 108zM540 801h-262l-155 180h200l146 -104h-120l146 104h200z" />
    <glyph glyph-name="ecaron" unicode="&#x11b;" horiz-adv-x="750" 
d="M399 -18q-107 0 -191.5 38.5t-133.5 108t-49 161.5q0 91 47.5 159t129.5 106t184 38q107 0 182 -45.5t115 -129t40 -197.5h-490v139h342l-68 -47q-4 35 -18.5 59t-37.5 36.5t-55 12.5q-37 0 -62.5 -14.5t-39 -39.5t-13.5 -56q0 -48 21.5 -80.5t65.5 -49.5t111 -17
q62 0 121 14t109 40v-154q-64 -40 -139.5 -61t-170.5 -21zM514 627h-256l-143 200h195l136 -144h-120l136 144h195z" />
    <glyph glyph-name="Gcircumflex" unicode="&#x11c;" horiz-adv-x="976" 
d="M840 324q-4 -66 -27.5 -127.5t-69 -110t-115.5 -76.5t-166 -28q-87 0 -164.5 25t-137 74.5t-93.5 123t-34 170.5t34 170.5t95 123t141 74.5t173 25q130 0 222.5 -38.5t149 -105.5t74.5 -155h-259q-9 28 -35.5 47.5t-64.5 30t-85 10.5q-58 0 -100 -19.5t-64.5 -59.5
t-22.5 -103q0 -64 25.5 -106t73 -62t112.5 -20q63 0 112 14.5t79.5 45t37.5 77.5h109zM518 224v177h410v-401h-179l-38 287l45 -63h-238zM346 982h262l155 -180h-200l-146 104h120l-146 -104h-200z" />
    <glyph glyph-name="gcircumflex" unicode="&#x11d;" horiz-adv-x="836" 
d="M536 147v95l8 28v161l-8 21v123h254v-422q0 -103 -51 -178.5t-144 -116.5t-221 -41q-82 0 -151.5 21t-140.5 61v185q62 -45 132.5 -66.5t143.5 -21.5q86 0 132 33t46 118zM309 71q-82 0 -146 32.5t-100.5 91.5t-36.5 137q0 79 36.5 137.5t100.5 91t146 32.5
q62 0 112.5 -19t89 -50t64.5 -66.5t39 -69.5t13 -59q0 -35 -20.5 -79t-60.5 -85t-99.5 -67.5t-137.5 -26.5zM398 239q50 0 87 24t59 69q-23 46 -60 69.5t-86 23.5q-35 0 -61.5 -10.5t-41 -31.5t-14.5 -51q0 -29 14 -50t40.5 -32t62.5 -11zM307 827h256l143 -200h-195
l-136 144h120l-136 -144h-195z" />
    <glyph glyph-name="Gbreve" unicode="&#x11e;" horiz-adv-x="976" 
d="M840 324q-4 -66 -27.5 -127.5t-69 -110t-115.5 -76.5t-166 -28q-87 0 -164.5 25t-137 74.5t-93.5 123t-34 170.5t34 170.5t95 123t141 74.5t173 25q130 0 222.5 -38.5t149 -105.5t74.5 -155h-259q-9 28 -35.5 47.5t-64.5 30t-85 10.5q-58 0 -100 -19.5t-64.5 -59.5
t-22.5 -103q0 -64 25.5 -106t73 -62t112.5 -20q63 0 112 14.5t79.5 45t37.5 77.5h109zM518 224v177h410v-401h-179l-38 287l45 -63h-238zM197 987h190q16 -22 38 -33t52 -11t52 11t38 33h190q-28 -100 -102 -147.5t-178 -47.5q-103 0 -177 47.5t-103 147.5z" />
    <glyph glyph-name="gbreve" unicode="&#x11f;" horiz-adv-x="836" 
d="M536 147v95l8 28v161l-8 21v123h254v-422q0 -103 -51 -178.5t-144 -116.5t-221 -41q-82 0 -151.5 21t-140.5 61v185q62 -45 132.5 -66.5t143.5 -21.5q86 0 132 33t46 118zM309 71q-82 0 -146 32.5t-100.5 91.5t-36.5 137q0 79 36.5 137.5t100.5 91t146 32.5
q62 0 112.5 -19t89 -50t64.5 -66.5t39 -69.5t13 -59q0 -35 -20.5 -79t-60.5 -85t-99.5 -67.5t-137.5 -26.5zM398 239q50 0 87 24t59 69q-23 46 -60 69.5t-86 23.5q-35 0 -61.5 -10.5t-41 -31.5t-14.5 -51q0 -29 14 -50t40.5 -32t62.5 -11zM170 827h183q7 -28 28.5 -44
t53.5 -16t53.5 16t28.5 44h183q-16 -97 -84 -153.5t-181 -56.5t-180.5 56.5t-84.5 153.5z" />
    <glyph glyph-name="Gdotaccent" unicode="&#x120;" horiz-adv-x="976" 
d="M840 324q-4 -66 -27.5 -127.5t-69 -110t-115.5 -76.5t-166 -28q-87 0 -164.5 25t-137 74.5t-93.5 123t-34 170.5t34 170.5t95 123t141 74.5t173 25q130 0 222.5 -38.5t149 -105.5t74.5 -155h-259q-9 28 -35.5 47.5t-64.5 30t-85 10.5q-58 0 -100 -19.5t-64.5 -59.5
t-22.5 -103q0 -64 25.5 -106t73 -62t112.5 -20q63 0 112 14.5t79.5 45t37.5 77.5h109zM518 224v177h410v-401h-179l-38 287l45 -63h-238zM477 792q-64 0 -103 31t-39 85t39 85t103 31q65 0 103.5 -31t38.5 -85t-38.5 -85t-103.5 -31z" />
    <glyph glyph-name="gdotaccent" unicode="&#x121;" horiz-adv-x="836" 
d="M536 147v95l8 28v161l-8 21v123h254v-422q0 -103 -51 -178.5t-144 -116.5t-221 -41q-82 0 -151.5 21t-140.5 61v185q62 -45 132.5 -66.5t143.5 -21.5q86 0 132 33t46 118zM309 71q-82 0 -146 32.5t-100.5 91.5t-36.5 137q0 79 36.5 137.5t100.5 91t146 32.5
q62 0 112.5 -19t89 -50t64.5 -66.5t39 -69.5t13 -59q0 -35 -20.5 -79t-60.5 -85t-99.5 -67.5t-137.5 -26.5zM398 239q50 0 87 24t59 69q-23 46 -60 69.5t-86 23.5q-35 0 -61.5 -10.5t-41 -31.5t-14.5 -51q0 -29 14 -50t40.5 -32t62.5 -11zM435 617q-64 0 -103 31t-39 85
t39 85t103 31q65 0 103.5 -31t38.5 -85t-38.5 -85t-103.5 -31z" />
    <glyph glyph-name="uni0122" unicode="&#x122;" horiz-adv-x="976" 
d="M840 324q-4 -66 -27.5 -127.5t-69 -110t-115.5 -76.5t-166 -28q-87 0 -164.5 25t-137 74.5t-93.5 123t-34 170.5t34 170.5t95 123t141 74.5t173 25q130 0 222.5 -38.5t149 -105.5t74.5 -155h-259q-9 28 -35.5 47.5t-64.5 30t-85 10.5q-58 0 -100 -19.5t-64.5 -59.5
t-22.5 -103q0 -64 25.5 -106t73 -62t112.5 -20q63 0 112 14.5t79.5 45t37.5 77.5h109zM518 224v177h410v-401h-179l-38 287l45 -63h-238zM370 -339l112 171l10 -69q-59 0 -94.5 26t-35.5 72t35.5 71.5t94.5 25.5t94 -25.5t35 -72.5q0 -31 -17.5 -58t-53.5 -68l-64 -73h-116z
" />
    <glyph glyph-name="uni0123" unicode="&#x123;" horiz-adv-x="836" 
d="M536 147v95l8 28v161l-8 21v123h254v-422q0 -103 -51 -178.5t-144 -116.5t-221 -41q-82 0 -151.5 21t-140.5 61v185q62 -45 132.5 -66.5t143.5 -21.5q86 0 132 33t46 118zM309 71q-82 0 -146 32.5t-100.5 91.5t-36.5 137q0 79 36.5 137.5t100.5 91t146 32.5
q62 0 112.5 -19t89 -50t64.5 -66.5t39 -69.5t13 -59q0 -35 -20.5 -79t-60.5 -85t-99.5 -67.5t-137.5 -26.5zM398 239q50 0 87 24t59 69q-23 46 -60 69.5t-86 23.5q-35 0 -61.5 -10.5t-41 -31.5t-14.5 -51q0 -29 14 -50t40.5 -32t62.5 -11zM562 914l-112 -171l-10 69
q59 0 94.5 -25.5t35.5 -72.5q0 -46 -35.5 -71.5t-94.5 -25.5t-94 26t-35 72q0 32 17.5 58.5t53.5 67.5l64 73h116z" />
    <glyph glyph-name="Hcircumflex" unicode="&#x124;" horiz-adv-x="956" 
d="M60 750h258v-750h-258v750zM638 750h258v-750h-258v750zM206 497h533v-228h-533v228zM347 982h262l155 -180h-200l-146 104h120l-146 -104h-200z" />
    <glyph glyph-name="hcircumflex" unicode="&#x125;" horiz-adv-x="807" 
d="M48 770h254v-770h-254v770zM501 593q84 0 143 -33.5t90.5 -94t31.5 -141.5v-324h-254v288q0 48 -26.5 74t-74.5 26q-34 0 -58.5 -13.5t-37.5 -39t-13 -61.5l-75 38q14 94 54 156.5t97 93.5t123 31zM293 1022h256l143 -200h-195l-136 144h120l-136 -144h-195z" />
    <glyph glyph-name="Hbar" unicode="&#x126;" horiz-adv-x="998" 
d="M81 750h258v-750h-258v750zM659 750h258v-750h-258v750zM207 457h533v-208h-533v208zM19 689h960v-166h-960v166z" />
    <glyph glyph-name="hbar" unicode="&#x127;" horiz-adv-x="807" 
d="M-17 727h575v-146h-575v146zM48 770h254v-770h-254v770zM501 553q84 0 143 -33.5t90.5 -94t31.5 -141.5v-284h-254v248q0 48 -26.5 74t-74.5 26q-34 0 -58.5 -13.5t-37.5 -39t-13 -61.5l-75 38q14 94 54 156.5t97 93.5t123 31z" />
    <glyph glyph-name="Itilde" unicode="&#x128;" horiz-adv-x="378" 
d="M-31 802q5 85 39.5 134t102.5 49q26 0 44.5 -6.5t33 -15.5t28 -15.5t28.5 -6.5q18 0 28.5 11.5t14.5 30.5h120q-4 -85 -39 -134t-103 -49q-25 0 -44 6.5t-33.5 15.5t-28 15.5t-28.5 6.5q-18 0 -28.5 -11t-14.5 -31h-120zM60 750h258v-750h-258v750z" />
    <glyph glyph-name="itilde" unicode="&#x129;" horiz-adv-x="350" 
d="M-45 627q5 95 39.5 150t102.5 55q26 0 44.5 -6.5t33 -15.5t28 -15.5t28.5 -6.5q18 0 28.5 11.5t14.5 30.5h120q-4 -95 -39 -150t-103 -55q-25 0 -44 6.5t-33.5 15.5t-28 15.5t-28.5 6.5q-18 0 -28.5 -11t-14.5 -31h-120zM48 587l127 -26l127 26v-587h-254v587z" />
    <glyph glyph-name="Imacron" unicode="&#x12a;" horiz-adv-x="378" 
d="M-12 817v147h402v-147h-402zM60 750h258v-750h-258v750z" />
    <glyph glyph-name="imacron" unicode="&#x12b;" horiz-adv-x="350" 
d="M-26 642v147h402v-147h-402zM48 587l127 -26l127 26v-587h-254v587z" />
    <glyph glyph-name="Ibreve" unicode="&#x12c;" horiz-adv-x="378" 
d="M-37 982h174q3 -25 15.5 -39.5t36.5 -14.5t36.5 14.5t15.5 39.5h174q-8 -85 -68 -137.5t-158 -52.5q-97 0 -157.5 52.5t-68.5 137.5zM60 750h258v-750h-258v750z" />
    <glyph glyph-name="ibreve" unicode="&#x12d;" horiz-adv-x="350" 
d="M-51 827h164q4 -26 21 -42t41 -16t41 16t21 42h164q-8 -94 -68 -152t-158 -58q-97 0 -157.5 58t-68.5 152zM48 587l127 -26l127 26v-587h-254v587z" />
    <glyph glyph-name="Iogonek" unicode="&#x12e;" horiz-adv-x="378" 
d="M208 12h87v-12h23q-48 -14 -73 -29t-25 -34q0 -26 48 -26q14 0 28 2t27 5v-124q-13 -5 -48 -10.5t-73 -5.5q-77 0 -124.5 28.5t-47.5 74.5q0 47 45 79t133 52zM60 750h258v-750h-258v750z" />
    <glyph glyph-name="iogonek" unicode="&#x12f;" horiz-adv-x="350" 
d="M220 22l59 -10v-12h23q-45 -14 -69 -30.5t-24 -32.5q0 -26 46 -26q17 0 30.5 2t26.5 5v-124q-13 -5 -48 -10.5t-73 -5.5q-77 0 -124.5 29t-47.5 76q0 50 51 83.5t150 55.5zM48 587l127 -26l127 26v-587h-254v587zM175 617q-64 0 -103 31t-39 85t39 85t103 31
q65 0 103.5 -31t38.5 -85t-38.5 -85t-103.5 -31z" />
    <glyph glyph-name="Idotaccent" unicode="&#x130;" horiz-adv-x="378" 
d="M60 750h258v-750h-258v750zM189 792q-64 0 -103 31t-39 85t39 85t103 31q65 0 103.5 -31t38.5 -85t-38.5 -85t-103.5 -31z" />
    <glyph glyph-name="dotlessi" unicode="&#x131;" horiz-adv-x="350" 
d="M48 587l127 -26l127 26v-587h-254v587z" />
    <glyph glyph-name="IJ" unicode="&#x132;" horiz-adv-x="862" 
d="M48 750h258v-331h-258v331zM50 356h254v-20q0 -67 28 -100.5t95 -33.5q66 0 96 30t30 82v436h258v-450q0 -95 -48 -167t-134 -111.5t-202 -39.5q-114 0 -196.5 41.5t-128 116.5t-50.5 174z" />
    <glyph glyph-name="ij" unicode="&#x133;" horiz-adv-x="700" 
d="M48 587l127 -26l127 26v-587h-254v587zM175 617q-64 0 -103 31t-39 85t39 85t103 31q65 0 103.5 -31t38.5 -85t-38.5 -85t-103.5 -31zM398 587l127 -26l127 26v-752h-254v752zM525 617q-64 0 -103 31t-39 85t39 85t103 31q65 0 103.5 -31t38.5 -85t-38.5 -85t-103.5 -31z
" />
    <glyph glyph-name="Jcircumflex" unicode="&#x134;" horiz-adv-x="824" 
d="M516 982h256l108 -180h-171l-96 103h62l-96 -103h-171zM13 376h252v-20q0 -77 28 -115.5t96 -38.5q66 0 96 35t30 97v416h258v-430q0 -101 -48 -177.5t-134 -118.5t-202 -42q-113 0 -197.5 44t-130.5 123.5t-46 184.5z" />
    <glyph glyph-name="jcircumflex" unicode="&#x135;" horiz-adv-x="350" 
d="M62 827h256l88 -200h-161l-86 133h62l-86 -133h-161zM48 587l127 -26l127 26v-752h-254v752z" />
    <glyph glyph-name="uni0136" unicode="&#x136;" horiz-adv-x="895" 
d="M60 0v750h256v-549l-65 55l373 494h270l-600 -750h-234zM420 345l190 149l294 -494h-292zM341 -339l112 171l10 -69q-59 0 -94.5 26t-35.5 72t35.5 71.5t94.5 25.5t94 -25.5t35 -72.5q0 -31 -17.5 -58t-53.5 -68l-64 -73h-116z" />
    <glyph glyph-name="uni0137" unicode="&#x137;" horiz-adv-x="782" 
d="M302 197l-68 22l287 356h258l-507 -575h-224v770h254v-573zM357 278l196 125l240 -403h-282zM288 -339l112 171l10 -69q-59 0 -94.5 26t-35.5 72t35.5 71.5t94.5 25.5t94 -25.5t35 -72.5q0 -31 -17.5 -58t-53.5 -68l-64 -73h-116z" />
    <glyph glyph-name="kgreenlandic" unicode="&#x138;" horiz-adv-x="781" 
d="M301 575v-268l220 268h257l-507 -575h-224v575h254zM356 278l196 125l240 -403h-282z" />
    <glyph glyph-name="Lacute" unicode="&#x139;" horiz-adv-x="781" 
d="M318 750v-636l-116 116h558v-230h-700v750h258zM191 982h284l-180 -180h-252z" />
    <glyph glyph-name="lacute" unicode="&#x13a;" horiz-adv-x="350" 
d="M48 770h254v-770h-254v770zM166 1022h244l-140 -200h-232z" />
    <glyph glyph-name="uni013B" unicode="&#x13b;" horiz-adv-x="781" 
d="M318 750v-636l-116 116h558v-230h-700v750h258zM298 -339l112 171l10 -69q-59 0 -94.5 26t-35.5 72t35.5 71.5t94.5 25.5t94 -25.5t35 -72.5q0 -31 -17.5 -58t-53.5 -68l-64 -73h-116z" />
    <glyph glyph-name="uni013C" unicode="&#x13c;" horiz-adv-x="350" 
d="M48 770h254v-770h-254v770zM53 -339l112 171l10 -69q-59 0 -94.5 26t-35.5 72t35.5 71.5t94.5 25.5t94 -25.5t35 -72.5q0 -31 -17.5 -58t-53.5 -68l-64 -73h-116z" />
    <glyph glyph-name="Lcaron" unicode="&#x13d;" horiz-adv-x="781" 
d="M318 750v-636l-116 116h558v-230h-700v750h258zM408 750h218l-78 -252h-170z" />
    <glyph glyph-name="lcaron" unicode="&#x13e;" horiz-adv-x="380" 
d="M48 770h254v-770h-254v770zM364 850h218l-75 -220h-170z" />
    <glyph glyph-name="Ldot" unicode="&#x13f;" horiz-adv-x="787" 
d="M318 750v-636l-116 116h558v-230h-700v750h258zM587 344q-38 0 -69.5 18t-49.5 49.5t-18 70.5q0 38 18 69t49.5 49t70.5 18q38 0 69 -18t49 -49t18 -70q0 -38 -18 -69.5t-49 -49.5t-70 -18z" />
    <glyph glyph-name="ldot" unicode="&#x140;" horiz-adv-x="608" 
d="M48 770h254v-770h-254v770zM479 253q-38 0 -69.5 18t-49.5 49.5t-18 69.5q0 39 18 70t49.5 49t69.5 18q39 0 70 -18t49 -49t18 -70q0 -38 -18 -69.5t-49 -49.5t-70 -18z" />
    <glyph glyph-name="Lslash" unicode="&#x141;" horiz-adv-x="809" 
d="M36 461l518 135v-170l-518 -135v170zM346 750v-636l-116 116h558v-230h-700v750h258z" />
    <glyph glyph-name="lslash" unicode="&#x142;" horiz-adv-x="455" 
d="M28 448l400 111v-165l-400 -111v165zM101 770h254v-770h-254v770z" />
    <glyph glyph-name="Nacute" unicode="&#x143;" horiz-adv-x="995" 
d="M755 188l-70 -17v579h250v-750h-323l-372 578l70 17v-595h-250v750h333zM514 982h284l-180 -180h-252z" />
    <glyph glyph-name="nacute" unicode="&#x144;" horiz-adv-x="820" 
d="M21 575h254l40 -245v-330h-254v369zM514 593q84 0 143 -33.5t90.5 -94t31.5 -141.5v-324h-254v288q0 48 -26.5 74t-74.5 26q-34 0 -58.5 -13.5t-37.5 -39t-13 -61.5l-75 38q14 94 54 156.5t97 93.5t123 31zM411 827h244l-140 -200h-232z" />
    <glyph glyph-name="uni0145" unicode="&#x145;" horiz-adv-x="995" 
d="M755 188l-70 -17v579h250v-750h-323l-372 578l70 17v-595h-250v750h333zM376 -339l112 171l10 -69q-59 0 -94.5 26t-35.5 72t35.5 71.5t94.5 25.5t94 -25.5t35 -72.5q0 -31 -17.5 -58t-53.5 -68l-64 -73h-116z" />
    <glyph glyph-name="uni0146" unicode="&#x146;" horiz-adv-x="820" 
d="M21 575h254l40 -245v-330h-254v369zM514 593q84 0 143 -33.5t90.5 -94t31.5 -141.5v-324h-254v288q0 48 -26.5 74t-74.5 26q-34 0 -58.5 -13.5t-37.5 -39t-13 -61.5l-75 38q14 94 54 156.5t97 93.5t123 31zM298 -339l112 171l10 -69q-59 0 -94.5 26t-35.5 72t35.5 71.5
t94.5 25.5t94 -25.5t35 -72.5q0 -31 -17.5 -58t-53.5 -68l-64 -73h-116z" />
    <glyph glyph-name="Ncaron" unicode="&#x147;" horiz-adv-x="995" 
d="M755 188l-70 -17v579h250v-750h-323l-372 578l70 17v-595h-250v750h333zM643 801h-262l-155 180h200l146 -104h-120l146 104h200z" />
    <glyph glyph-name="ncaron" unicode="&#x148;" horiz-adv-x="820" 
d="M21 575h254l40 -245v-330h-254v369zM514 593q84 0 143 -33.5t90.5 -94t31.5 -141.5v-324h-254v288q0 48 -26.5 74t-74.5 26q-34 0 -58.5 -13.5t-37.5 -39t-13 -61.5l-75 38q14 94 54 156.5t97 93.5t123 31zM548 627h-256l-143 200h195l136 -144h-120l136 144h195z" />
    <glyph glyph-name="napostrophe" unicode="&#x149;" horiz-adv-x="1104" 
d="M1 355l112 234l16 -94q-38 0 -69 18t-49 48.5t-18 67.5t18 67t49 48t69 18t68.5 -18t48.5 -48.5t18 -68.5q0 -34 -17.5 -74t-59.5 -99l-70 -99h-116zM305 575h254l40 -245v-330h-254v369zM798 593q84 0 143 -33.5t90.5 -94t31.5 -141.5v-324h-254v288q0 48 -26.5 74
t-74.5 26q-34 0 -58.5 -13.5t-37.5 -39t-13 -61.5l-75 38q14 94 54 156.5t97 93.5t123 31z" />
    <glyph glyph-name="Eng" unicode="&#x14a;" horiz-adv-x="934" 
d="M60 750h258v-750h-258v750zM882 469v-395q0 -80 -33 -138t-99.5 -88.5t-169.5 -30.5q-51 0 -97.5 7.5t-79.5 17.5v190q23 -8 57 -14t71 -6q50 0 71.5 25t21.5 70v301q0 62 -38.5 96t-110.5 34q-50 0 -85.5 -17t-53.5 -49t-18 -78l-77 38q25 127 75.5 200.5t117 104.5
t138.5 31q96 0 165.5 -37t107 -104.5t37.5 -157.5z" />
    <glyph glyph-name="eng" unicode="&#x14b;" horiz-adv-x="820" 
d="M21 575h254l40 -245v-330h-254v369zM514 593q84 0 143 -33.5t90.5 -94t31.5 -141.5v-245q0 -78 -33 -137t-91.5 -92t-137.5 -33q-43 0 -80.5 7t-66.5 18v190q22 -10 41.5 -16.5t46.5 -6.5q41 0 54 15.5t13 53.5v210q0 48 -26.5 74t-74.5 26q-34 0 -58.5 -13.5t-37.5 -39
t-13 -61.5l-75 38q14 94 54 156.5t97 93.5t123 31z" />
    <glyph glyph-name="Omacron" unicode="&#x14c;" horiz-adv-x="976" 
d="M488 -18q-137 0 -239.5 49t-159.5 137.5t-57 206.5t57 206.5t159.5 137.5t239.5 49t239.5 -49t159.5 -137.5t57 -206.5t-57 -206.5t-159.5 -137.5t-239.5 -49zM488 212q61 0 105 19.5t67.5 56t23.5 87.5t-23.5 87.5t-67.5 56t-105 19.5t-105 -19.5t-67.5 -56t-23.5 -87.5
t23.5 -87.5t67.5 -56t105 -19.5zM226 817v147h524v-147h-524z" />
    <glyph glyph-name="omacron" unicode="&#x14d;" horiz-adv-x="810" 
d="M405 -18q-114 0 -199.5 38t-133 107t-47.5 160q0 92 47.5 161t133 107t199.5 38t199.5 -38t133 -107t47.5 -161q0 -91 -47.5 -160t-133 -107t-199.5 -38zM405 167q40 0 67.5 14t42 41t14.5 65q0 39 -14.5 66t-42 41t-67.5 14q-39 0 -67 -14t-42.5 -41t-14.5 -65
q0 -39 14.5 -66t42.5 -41t67 -14zM143 642v147h524v-147h-524z" />
    <glyph glyph-name="Obreve" unicode="&#x14e;" horiz-adv-x="976" 
d="M488 -18q-137 0 -239.5 49t-159.5 137.5t-57 206.5t57 206.5t159.5 137.5t239.5 49t239.5 -49t159.5 -137.5t57 -206.5t-57 -206.5t-159.5 -137.5t-239.5 -49zM488 212q61 0 105 19.5t67.5 56t23.5 87.5t-23.5 87.5t-67.5 56t-105 19.5t-105 -19.5t-67.5 -56t-23.5 -87.5
t23.5 -87.5t67.5 -56t105 -19.5zM208 987h190q16 -22 38 -33t52 -11t52 11t38 33h190q-28 -100 -102 -147.5t-178 -47.5q-103 0 -177 47.5t-103 147.5z" />
    <glyph glyph-name="obreve" unicode="&#x14f;" horiz-adv-x="810" 
d="M405 -18q-114 0 -199.5 38t-133 107t-47.5 160q0 92 47.5 161t133 107t199.5 38t199.5 -38t133 -107t47.5 -161q0 -91 -47.5 -160t-133 -107t-199.5 -38zM405 167q40 0 67.5 14t42 41t14.5 65q0 39 -14.5 66t-42 41t-67.5 14q-39 0 -67 -14t-42.5 -41t-14.5 -65
q0 -39 14.5 -66t42.5 -41t67 -14zM140 827h183q7 -28 28.5 -44t53.5 -16t53.5 16t28.5 44h183q-16 -97 -84 -153.5t-181 -56.5t-180.5 56.5t-84.5 153.5z" />
    <glyph glyph-name="Ohungarumlaut" unicode="&#x150;" horiz-adv-x="976" 
d="M488 -18q-137 0 -239.5 49t-159.5 137.5t-57 206.5t57 206.5t159.5 137.5t239.5 49t239.5 -49t159.5 -137.5t57 -206.5t-57 -206.5t-159.5 -137.5t-239.5 -49zM488 212q61 0 105 19.5t67.5 56t23.5 87.5t-23.5 87.5t-67.5 56t-105 19.5t-105 -19.5t-67.5 -56t-23.5 -87.5
t23.5 -87.5t67.5 -56t105 -19.5zM368 982h239l-147 -180h-217zM660 982h239l-147 -180h-217z" />
    <glyph glyph-name="ohungarumlaut" unicode="&#x151;" horiz-adv-x="810" 
d="M405 -18q-114 0 -199.5 38t-133 107t-47.5 160q0 92 47.5 161t133 107t199.5 38t199.5 -38t133 -107t47.5 -161q0 -91 -47.5 -160t-133 -107t-199.5 -38zM405 167q40 0 67.5 14t42 41t14.5 65q0 39 -14.5 66t-42 41t-67.5 14q-39 0 -67 -14t-42.5 -41t-14.5 -65
q0 -39 14.5 -66t42.5 -41t67 -14zM275 827h219l-127 -200h-207zM557 827h219l-127 -200h-207z" />
    <glyph glyph-name="OE" unicode="&#x152;" horiz-adv-x="1326" 
d="M488 0q-137 0 -239.5 46.5t-159.5 131t-57 197.5q0 114 57 198t159.5 130.5t239.5 46.5h787v-204h-416v-82h384v-178h-384v-82h421v-204h-792zM468 230h143v290h-143q-55 0 -94.5 -17.5t-60.5 -49.5t-21 -78q0 -45 21 -77.5t60.5 -50t94.5 -17.5z" />
    <glyph glyph-name="oe" unicode="&#x153;" horiz-adv-x="1246" 
d="M392 -18q-107 0 -190 38t-130 107t-47 160q0 92 47 161t130 107t190 38q109 0 185.5 -37t117 -105.5t40.5 -163.5t-40.5 -163.5t-117 -105t-185.5 -36.5zM405 167q40 0 67.5 14t42 41t14.5 65q0 39 -14.5 66t-42 41t-67.5 14q-39 0 -67 -14t-42.5 -41t-14.5 -66
q0 -38 14.5 -65t42.5 -41t67 -14zM902 -18q-107 0 -182.5 36t-115.5 105t-40 167q0 86 41.5 154.5t114.5 108.5t165 40q104 0 179 -44t115 -124.5t40 -190.5h-490v117h342l-58 -38q-5 39 -20 65t-40.5 39.5t-60.5 13.5q-37 0 -62.5 -16t-39 -43t-13.5 -61q0 -48 21 -80.5
t62.5 -49.5t101.5 -17q71 0 132 14t111 40v-144q-64 -45 -144.5 -68.5t-158.5 -23.5z" />
    <glyph glyph-name="Racute" unicode="&#x154;" horiz-adv-x="876" 
d="M238 429h252q38 0 59 18t21 52t-21 52t-59 18h-288l116 116v-685h-258v750h470q90 0 157.5 -31.5t105 -87.5t37.5 -132q0 -74 -37.5 -130.5t-105 -87.5t-157.5 -31h-292v179zM326 351h285l249 -351h-295zM422 982h284l-180 -180h-252z" />
    <glyph glyph-name="racute" unicode="&#x155;" horiz-adv-x="585" 
d="M21 575h260l34 -203v-372h-254v375zM569 587v-215q-34 6 -61 8.5t-48 2.5q-38 0 -71 -13.5t-53.5 -48.5t-20.5 -100l-45 56q10 62 25.5 118.5t41.5 101t66 70.5t100 26q15 0 31 -1.5t35 -4.5zM303 827h244l-140 -200h-232z" />
    <glyph glyph-name="uni0156" unicode="&#x156;" horiz-adv-x="876" 
d="M238 429h252q38 0 59 18t21 52t-21 52t-59 18h-288l116 116v-685h-258v750h470q90 0 157.5 -31.5t105 -87.5t37.5 -132q0 -74 -37.5 -130.5t-105 -87.5t-157.5 -31h-292v179zM326 351h285l249 -351h-295zM314 -339l112 171l10 -69q-59 0 -94.5 26t-35.5 72t35.5 71.5
t94.5 25.5t94 -25.5t35 -72.5q0 -31 -17.5 -58t-53.5 -68l-64 -73h-116z" />
    <glyph glyph-name="uni0157" unicode="&#x157;" horiz-adv-x="585" 
d="M21 575h260l34 -203v-372h-254v375zM569 587v-215q-34 6 -61 8.5t-48 2.5q-38 0 -71 -13.5t-53.5 -48.5t-20.5 -100l-45 56q10 62 25.5 118.5t41.5 101t66 70.5t100 26q15 0 31 -1.5t35 -4.5zM70 -339l112 171l10 -69q-59 0 -94.5 26t-35.5 72t35.5 71.5t94.5 25.5
t94 -25.5t35 -72.5q0 -31 -17.5 -58t-53.5 -68l-64 -73h-116z" />
    <glyph glyph-name="Rcaron" unicode="&#x158;" horiz-adv-x="876" 
d="M238 429h252q38 0 59 18t21 52t-21 52t-59 18h-288l116 116v-685h-258v750h470q90 0 157.5 -31.5t105 -87.5t37.5 -132q0 -74 -37.5 -130.5t-105 -87.5t-157.5 -31h-292v179zM326 351h285l249 -351h-295zM551 801h-262l-155 180h200l146 -104h-120l146 104h200z" />
    <glyph glyph-name="rcaron" unicode="&#x159;" horiz-adv-x="585" 
d="M21 575h260l34 -203v-372h-254v375zM569 587v-215q-34 6 -61 8.5t-48 2.5q-38 0 -71 -13.5t-53.5 -48.5t-20.5 -100l-45 56q10 62 25.5 118.5t41.5 101t66 70.5t100 26q15 0 31 -1.5t35 -4.5zM440 627h-256l-143 200h195l136 -144h-120l136 144h195z" />
    <glyph glyph-name="Sacute" unicode="&#x15a;" horiz-adv-x="870" 
d="M35 247h262q4 -22 23 -37.5t52 -24t79 -8.5q60 0 93.5 12t33.5 39q0 18 -19 30.5t-78 16.5l-124 8q-169 11 -244 72t-75 161q0 84 48 140t134.5 84t202.5 28q113 0 200.5 -31.5t139 -88.5t56.5 -133h-262q-3 18 -19.5 31t-46.5 20t-73 7q-55 0 -86.5 -11t-31.5 -36
q0 -17 18.5 -29t71.5 -16l140 -9q110 -7 178 -32.5t99.5 -70.5t31.5 -111q0 -83 -49 -145t-137.5 -96.5t-206.5 -34.5q-122 0 -214 33t-143.5 93t-53.5 139zM437 982h284l-180 -180h-252z" />
    <glyph glyph-name="sacute" unicode="&#x15b;" horiz-adv-x="786" 
d="M760 196q0 -72 -45 -119.5t-125.5 -71t-188.5 -23.5q-111 0 -195.5 26.5t-133 74t-51.5 110.5h258q7 -17 24 -28.5t44.5 -17t67.5 -5.5q48 0 73 7t25 20q0 15 -21 21.5t-68 9.5l-94 6q-109 7 -173.5 29.5t-92.5 61.5t-28 93q0 69 43.5 114t121.5 67t182 22
q102 0 181 -25.5t127 -70.5t56 -106h-258q-5 16 -20 27.5t-39 18t-58 6.5q-46 0 -67 -7.5t-21 -20.5q0 -15 13 -21t51 -8l126 -8q108 -6 170.5 -28.5t89 -60.5t26.5 -93zM383 827h244l-140 -200h-232z" />
    <glyph glyph-name="Scircumflex" unicode="&#x15c;" horiz-adv-x="870" 
d="M35 247h262q4 -22 23 -37.5t52 -24t79 -8.5q60 0 93.5 12t33.5 39q0 18 -19 30.5t-78 16.5l-124 8q-169 11 -244 72t-75 161q0 84 48 140t134.5 84t202.5 28q113 0 200.5 -31.5t139 -88.5t56.5 -133h-262q-3 18 -19.5 31t-46.5 20t-73 7q-55 0 -86.5 -11t-31.5 -36
q0 -17 18.5 -29t71.5 -16l140 -9q110 -7 178 -32.5t99.5 -70.5t31.5 -111q0 -83 -49 -145t-137.5 -96.5t-206.5 -34.5q-122 0 -214 33t-143.5 93t-53.5 139zM304 982h262l155 -180h-200l-146 104h120l-146 -104h-200z" />
    <glyph glyph-name="scircumflex" unicode="&#x15d;" horiz-adv-x="786" 
d="M760 196q0 -72 -45 -119.5t-125.5 -71t-188.5 -23.5q-111 0 -195.5 26.5t-133 74t-51.5 110.5h258q7 -17 24 -28.5t44.5 -17t67.5 -5.5q48 0 73 7t25 20q0 15 -21 21.5t-68 9.5l-94 6q-109 7 -173.5 29.5t-92.5 61.5t-28 93q0 69 43.5 114t121.5 67t182 22
q102 0 181 -25.5t127 -70.5t56 -106h-258q-5 16 -20 27.5t-39 18t-58 6.5q-46 0 -67 -7.5t-21 -20.5q0 -15 13 -21t51 -8l126 -8q108 -6 170.5 -28.5t89 -60.5t26.5 -93zM264 827h256l143 -200h-195l-136 144h120l-136 -144h-195z" />
    <glyph glyph-name="Scedilla" unicode="&#x15e;" horiz-adv-x="870" 
d="M35 247h262q4 -22 23 -37.5t52 -24t79 -8.5q60 0 93.5 12t33.5 39q0 18 -19 30.5t-78 16.5l-124 8q-169 11 -244 72t-75 161q0 84 48 140t134.5 84t202.5 28q113 0 200.5 -31.5t139 -88.5t56.5 -133h-262q-3 18 -19.5 31t-46.5 20t-73 7q-55 0 -86.5 -11t-31.5 -36
q0 -17 18.5 -29t71.5 -16l140 -9q110 -7 178 -32.5t99.5 -70.5t31.5 -111q0 -83 -49 -145t-137.5 -96.5t-206.5 -34.5q-122 0 -214 33t-143.5 93t-53.5 139zM387 25h115l-51 -93l-63 4q28 12 58.5 19.5t63.5 7.5q77 0 117 -27.5t40 -77.5q0 -52 -53 -86.5t-158 -34.5
q-91 0 -150 31.5t-75 88.5h157q5 -9 21 -16t47 -7t46.5 8.5t15.5 21.5q0 12 -12.5 20.5t-39.5 8.5q-13 0 -27.5 -1.5t-26.5 -6.5h-117z" />
    <glyph glyph-name="scedilla" unicode="&#x15f;" horiz-adv-x="786" 
d="M760 196q0 -72 -45 -119.5t-125.5 -71t-188.5 -23.5q-111 0 -195.5 26.5t-133 74t-51.5 110.5h258q7 -17 24 -28.5t44.5 -17t67.5 -5.5q48 0 73 7t25 20q0 15 -21 21.5t-68 9.5l-94 6q-109 7 -173.5 29.5t-92.5 61.5t-28 93q0 69 43.5 114t121.5 67t182 22
q102 0 181 -25.5t127 -70.5t56 -106h-258q-5 16 -20 27.5t-39 18t-58 6.5q-46 0 -67 -7.5t-21 -20.5q0 -15 13 -21t51 -8l126 -8q108 -6 170.5 -28.5t89 -60.5t26.5 -93zM347 22h116l-60 -91l-57 4q25 11 54 18t64 7q71 0 108.5 -26.5t37.5 -73.5q0 -50 -49.5 -83.5
t-147.5 -33.5q-85 0 -140.5 30.5t-71.5 84.5h140q6 -10 23 -17.5t49 -7.5t48 9.5t16 22.5t-12.5 22t-41.5 9q-12 0 -24.5 -2t-22.5 -7h-117z" />
    <glyph glyph-name="Scaron" unicode="&#x160;" horiz-adv-x="870" 
d="M35 247h262q4 -22 23 -37.5t52 -24t79 -8.5q60 0 93.5 12t33.5 39q0 18 -19 30.5t-78 16.5l-124 8q-169 11 -244 72t-75 161q0 84 48 140t134.5 84t202.5 28q113 0 200.5 -31.5t139 -88.5t56.5 -133h-262q-3 18 -19.5 31t-46.5 20t-73 7q-55 0 -86.5 -11t-31.5 -36
q0 -17 18.5 -29t71.5 -16l140 -9q110 -7 178 -32.5t99.5 -70.5t31.5 -111q0 -83 -49 -145t-137.5 -96.5t-206.5 -34.5q-122 0 -214 33t-143.5 93t-53.5 139zM566 801h-262l-155 180h200l146 -104h-120l146 104h200z" />
    <glyph glyph-name="scaron" unicode="&#x161;" horiz-adv-x="786" 
d="M760 196q0 -72 -45 -119.5t-125.5 -71t-188.5 -23.5q-111 0 -195.5 26.5t-133 74t-51.5 110.5h258q7 -17 24 -28.5t44.5 -17t67.5 -5.5q48 0 73 7t25 20q0 15 -21 21.5t-68 9.5l-94 6q-109 7 -173.5 29.5t-92.5 61.5t-28 93q0 69 43.5 114t121.5 67t182 22
q102 0 181 -25.5t127 -70.5t56 -106h-258q-5 16 -20 27.5t-39 18t-58 6.5q-46 0 -67 -7.5t-21 -20.5q0 -15 13 -21t51 -8l126 -8q108 -6 170.5 -28.5t89 -60.5t26.5 -93zM520 627h-256l-143 200h195l136 -144h-120l136 144h195z" />
    <glyph glyph-name="uni0162" unicode="&#x162;" horiz-adv-x="840" 
d="M291 639h258v-639h-258v639zM21 750h798v-230h-798v230zM372 25h115l-51 -93l-63 4q28 12 58.5 19.5t63.5 7.5q77 0 117 -27.5t40 -77.5q0 -52 -53 -86.5t-158 -34.5q-91 0 -150 31.5t-75 88.5h157q5 -9 21 -16t47 -7t46.5 8.5t15.5 21.5q0 12 -12.5 20.5t-39.5 8.5
q-13 0 -27.5 -1.5t-26.5 -6.5h-117z" />
    <glyph glyph-name="uni0163" unicode="&#x163;" horiz-adv-x="635" 
d="M6 390v109l113 57l111 176h143v-157h225v-185h-225v-118q0 -55 21 -77.5t86 -22.5q40 0 71.5 5.5t56.5 13.5v-184q-34 -10 -83.5 -17.5t-103.5 -7.5q-102 0 -169 30.5t-100 88.5t-33 138v151h-113zM304 22h116l-60 -91l-57 4q25 11 54 18t64 7q71 0 108.5 -26.5
t37.5 -73.5q0 -50 -49.5 -83.5t-147.5 -33.5q-85 0 -140.5 30.5t-71.5 84.5h140q6 -10 23 -17.5t49 -7.5t48 9.5t16 22.5t-12.5 22t-41.5 9q-12 0 -24.5 -2t-22.5 -7h-117z" />
    <glyph glyph-name="Tcaron" unicode="&#x164;" horiz-adv-x="840" 
d="M291 639h258v-639h-258v639zM21 750h798v-230h-798v230zM551 801h-262l-155 180h200l146 -104h-120l146 104h200z" />
    <glyph glyph-name="tcaron" unicode="&#x165;" horiz-adv-x="635" 
d="M6 390v109l113 57l111 176h143v-157h225v-185h-225v-118q0 -55 21 -77.5t86 -22.5q40 0 71.5 5.5t56.5 13.5v-184q-34 -10 -83.5 -17.5t-103.5 -7.5q-102 0 -169 30.5t-100 88.5t-33 138v151h-113zM450 895h218l-75 -220h-170z" />
    <glyph glyph-name="Tbar" unicode="&#x166;" horiz-adv-x="850" 
d="M118 397h614v-170h-614v170zM296 639h258v-639h-258v639zM26 750h798v-230h-798v230z" />
    <glyph glyph-name="tbar" unicode="&#x167;" horiz-adv-x="647" 
d="M30 362h509v-165h-509v165zM14 390v109l113 57l111 176h143v-157h225v-185h-225v-118q0 -55 21 -77.5t86 -22.5q40 0 71.5 5.5t56.5 13.5v-184q-34 -10 -83.5 -17.5t-103.5 -7.5q-102 0 -169 30.5t-100 88.5t-33 138v151h-113z" />
    <glyph glyph-name="Utilde" unicode="&#x168;" horiz-adv-x="889" 
d="M308 344q0 -41 14.5 -70.5t44.5 -45.5t77 -16q48 0 78 15.5t44 45.5t14 71v406h258v-420q0 -105 -49 -183t-137.5 -121.5t-207.5 -43.5q-118 0 -206.5 43.5t-138 121.5t-49.5 183v420h258v-406zM148 806q13 89 59.5 139.5t139.5 50.5q28 0 53.5 -6.5t48 -15t42.5 -15
t37 -6.5q20 0 33.5 9t17.5 27h160q-13 -88 -59.5 -139t-139.5 -51q-28 0 -53.5 6.5t-48 15t-42.5 15t-37 6.5q-20 0 -33.5 -9t-17.5 -27h-160z" />
    <glyph glyph-name="utilde" unicode="&#x169;" horiz-adv-x="807" 
d="M299 -17q-81 0 -139 33.5t-88.5 94t-30.5 140.5v324h254v-288q0 -47 24.5 -73t69.5 -26q35 0 57.5 12.5t34 38t11.5 62.5l75 -38q-13 -93 -52.5 -155.5t-95 -93.5t-120.5 -31zM532 0l-40 245v330h254v-369l40 -206h-254zM138 627q5 95 43 150t116 55q28 0 54 -7
t48.5 -16.5t42.5 -17t36 -7.5q20 0 33.5 12t17.5 34h140q-4 -95 -42.5 -150t-116.5 -55q-28 0 -54 7.5t-48.5 17t-42.5 16.5t-36 7q-20 0 -33.5 -12t-17.5 -34h-140z" />
    <glyph glyph-name="Umacron" unicode="&#x16a;" horiz-adv-x="889" 
d="M308 344q0 -41 14.5 -70.5t44.5 -45.5t77 -16q48 0 78 15.5t44 45.5t14 71v406h258v-420q0 -105 -49 -183t-137.5 -121.5t-207.5 -43.5q-118 0 -206.5 43.5t-138 121.5t-49.5 183v420h258v-406zM182 817v147h524v-147h-524z" />
    <glyph glyph-name="umacron" unicode="&#x16b;" horiz-adv-x="807" 
d="M299 -17q-81 0 -139 33.5t-88.5 94t-30.5 140.5v324h254v-288q0 -47 24.5 -73t69.5 -26q35 0 57.5 12.5t34 38t11.5 62.5l75 -38q-13 -93 -52.5 -155.5t-95 -93.5t-120.5 -31zM532 0l-40 245v330h254v-369l40 -206h-254zM142 642v147h524v-147h-524z" />
    <glyph glyph-name="Ubreve" unicode="&#x16c;" horiz-adv-x="889" 
d="M308 344q0 -41 14.5 -70.5t44.5 -45.5t77 -16q48 0 78 15.5t44 45.5t14 71v406h258v-420q0 -105 -49 -183t-137.5 -121.5t-207.5 -43.5q-118 0 -206.5 43.5t-138 121.5t-49.5 183v420h258v-406zM164 987h190q16 -22 38 -33t52 -11t52 11t38 33h190q-28 -100 -102 -147.5
t-178 -47.5q-103 0 -177 47.5t-103 147.5z" />
    <glyph glyph-name="ubreve" unicode="&#x16d;" horiz-adv-x="807" 
d="M299 -17q-81 0 -139 33.5t-88.5 94t-30.5 140.5v324h254v-288q0 -47 24.5 -73t69.5 -26q35 0 57.5 12.5t34 38t11.5 62.5l75 -38q-13 -93 -52.5 -155.5t-95 -93.5t-120.5 -31zM532 0l-40 245v330h254v-369l40 -206h-254zM139 827h183q7 -28 28.5 -44t53.5 -16t53.5 16
t28.5 44h183q-16 -97 -84 -153.5t-181 -56.5t-180.5 56.5t-84.5 153.5z" />
    <glyph glyph-name="Uring" unicode="&#x16e;" horiz-adv-x="889" 
d="M308 344q0 -41 14.5 -70.5t44.5 -45.5t77 -16q48 0 78 15.5t44 45.5t14 71v406h258v-420q0 -105 -49 -183t-137.5 -121.5t-207.5 -43.5q-118 0 -206.5 43.5t-138 121.5t-49.5 183v420h258v-406zM444 782q-106 0 -164 39t-58 111t58 111t164 39q107 0 164.5 -39t57.5 -111
t-57.5 -111t-164.5 -39zM444 886q46 0 66 12t20 34t-20 34t-66 12t-66 -12t-20 -34t20 -34t66 -12z" />
    <glyph glyph-name="uring" unicode="&#x16f;" horiz-adv-x="807" 
d="M299 -17q-81 0 -139 33.5t-88.5 94t-30.5 140.5v324h254v-288q0 -47 24.5 -73t69.5 -26q35 0 57.5 12.5t34 38t11.5 62.5l75 -38q-13 -93 -52.5 -155.5t-95 -93.5t-120.5 -31zM532 0l-40 245v330h254v-369l40 -206h-254zM404 617q-99 0 -154.5 40t-55.5 111
q0 70 55.5 109.5t154.5 39.5t154.5 -39.5t55.5 -109.5q0 -71 -55.5 -111t-154.5 -40zM404 713q35 0 54 14.5t19 39.5q0 26 -19 40t-54 14q-34 0 -53.5 -14t-19.5 -40q0 -25 19.5 -39.5t53.5 -14.5z" />
    <glyph glyph-name="Uhungarumlaut" unicode="&#x170;" horiz-adv-x="889" 
d="M308 344q0 -41 14.5 -70.5t44.5 -45.5t77 -16q48 0 78 15.5t44 45.5t14 71v406h258v-420q0 -105 -49 -183t-137.5 -121.5t-207.5 -43.5q-118 0 -206.5 43.5t-138 121.5t-49.5 183v420h258v-406zM299 982h239l-147 -180h-217zM591 982h239l-147 -180h-217z" />
    <glyph glyph-name="uhungarumlaut" unicode="&#x171;" horiz-adv-x="807" 
d="M299 -17q-81 0 -139 33.5t-88.5 94t-30.5 140.5v324h254v-288q0 -47 24.5 -73t69.5 -26q35 0 57.5 12.5t34 38t11.5 62.5l75 -38q-13 -93 -52.5 -155.5t-95 -93.5t-120.5 -31zM532 0l-40 245v330h254v-369l40 -206h-254zM274 827h219l-127 -200h-207zM556 827h219
l-127 -200h-207z" />
    <glyph glyph-name="Uogonek" unicode="&#x172;" horiz-adv-x="889" 
d="M580 344v406h258v-420q0 -124 -68 -210.5t-186 -119.5q-48 -14 -73.5 -30.5t-25.5 -32.5q0 -26 62 -26q17 0 30.5 2t26.5 5v-124q-13 -5 -48 -10.5t-73 -5.5q-77 0 -124.5 29t-47.5 76t48.5 78.5t142.5 49.5l-18 -28q-128 -8 -226 33.5t-153 122t-55 191.5v420h258v-406
q0 -41 14.5 -70.5t44.5 -45.5t77 -16q48 0 78 15.5t44 45.5t14 71z" />
    <glyph glyph-name="uogonek" unicode="&#x173;" horiz-adv-x="807" 
d="M299 -17q-81 0 -139 33.5t-88.5 94t-30.5 140.5v324h254v-288q0 -47 24.5 -73t69.5 -26q35 0 57.5 12.5t34 38t11.5 62.5l75 -38q-13 -93 -52.5 -155.5t-95 -93.5t-120.5 -31zM532 0l-40 245v330h254v-369l40 -206h-254zM688 22l75 -10v-12h23q-38 -9 -65 -20
t-40.5 -21.5t-13.5 -21.5q0 -26 62 -26q17 0 30.5 2t26.5 5v-124q-13 -5 -48 -10.5t-73 -5.5q-77 0 -124.5 27t-47.5 71q0 52 49.5 88t145.5 58z" />
    <glyph glyph-name="Wcircumflex" unicode="&#x174;" horiz-adv-x="1390" 
d="M1026 114l-75 -1l158 637h273l-211 -750h-332l-194 609h100l-194 -609h-332l-211 750h274l158 -636l-75 1l195 635h270zM564 982h262l155 -180h-200l-146 104h120l-146 -104h-200z" />
    <glyph glyph-name="wcircumflex" unicode="&#x175;" horiz-adv-x="1168" 
d="M854 147h-75l139 428h254l-204 -575h-259l-165 452h80l-165 -452h-259l-204 575h254l139 -428h-75l151 428h238zM461 827h256l143 -200h-195l-136 144h120l-136 -144h-195z" />
    <glyph glyph-name="Ycircumflex" unicode="&#x176;" horiz-adv-x="957" 
d="M350 0v370h258v-370h-258zM0 750h283l249 -321h-107l248 321h283l-394 -506l-167 -3zM347 982h262l155 -180h-200l-146 104h120l-146 -104h-200z" />
    <glyph glyph-name="ycircumflex" unicode="&#x177;" horiz-adv-x="818" 
d="M270 -183q-72 0 -126.5 17.5t-108.5 57.5v170q53 -34 98.5 -48.5t98.5 -14.5q42 0 73.5 17.5t51.5 67.5l195 491h270l-262 -567q-33 -72 -80.5 -114t-101.5 -59.5t-108 -17.5zM238 77l-231 498h280l193 -498h-242zM290 827h256l143 -200h-195l-136 144h120l-136 -144
h-195z" />
    <glyph glyph-name="Ydieresis" unicode="&#x178;" horiz-adv-x="957" 
d="M350 0v370h258v-370h-258zM0 750h283l249 -321h-107l248 321h283l-394 -506l-167 -3zM318 792q-60 0 -95.5 29t-35.5 82q0 50 35.5 78.5t95.5 28.5t95.5 -28.5t35.5 -78.5q0 -53 -35.5 -82t-95.5 -29zM638 792q-60 0 -95.5 29t-35.5 82q0 50 35.5 78.5t95.5 28.5
t95.5 -28.5t35.5 -78.5q0 -53 -35.5 -82t-95.5 -29z" />
    <glyph glyph-name="Zacute" unicode="&#x179;" horiz-adv-x="830" 
d="M43 0v183l449 415l194 -45h-640v198h738v-183l-448 -415l-166 45h617v-198h-744zM417 982h284l-180 -180h-252z" />
    <glyph glyph-name="zacute" unicode="&#x17a;" horiz-adv-x="723" 
d="M39 0v174l362 247l185 -24h-545v178h641v-174l-362 -247l-156 24h520v-178h-645zM353 827h244l-140 -200h-232z" />
    <glyph glyph-name="Zdotaccent" unicode="&#x17b;" horiz-adv-x="830" 
d="M43 0v183l449 415l194 -45h-640v198h738v-183l-448 -415l-166 45h617v-198h-744zM415 792q-64 0 -103 31t-39 85t39 85t103 31q65 0 103.5 -31t38.5 -85t-38.5 -85t-103.5 -31z" />
    <glyph glyph-name="zdotaccent" unicode="&#x17c;" horiz-adv-x="723" 
d="M39 0v174l362 247l185 -24h-545v178h641v-174l-362 -247l-156 24h520v-178h-645zM362 617q-64 0 -103 31t-39 85t39 85t103 31q65 0 103.5 -31t38.5 -85t-38.5 -85t-103.5 -31z" />
    <glyph glyph-name="Zcaron" unicode="&#x17d;" horiz-adv-x="830" 
d="M43 0v183l449 415l194 -45h-640v198h738v-183l-448 -415l-166 45h617v-198h-744zM546 801h-262l-155 180h200l146 -104h-120l146 104h200z" />
    <glyph glyph-name="zcaron" unicode="&#x17e;" horiz-adv-x="723" 
d="M39 0v174l362 247l185 -24h-545v178h641v-174l-362 -247l-156 24h520v-178h-645zM490 627h-256l-143 200h195l136 -144h-120l136 144h195z" />
    <glyph glyph-name="longs" unicode="&#x17f;" horiz-adv-x="351" 
d="M405 602q-63 0 -83 -19t-20 -58v-525h-254v515q0 91 38 151.5t111 91t177 30.5q44 0 80 -5.5t79 -16.5v-182q-31 8 -62.5 13t-65.5 5z" />
    <glyph glyph-name="uni0180" unicode="&#x180;" horiz-adv-x="835" 
d="M525 -18q-82 0 -145.5 35.5t-102.5 99.5t-50 150q10 88 49.5 152t103.5 99t145 35q85 0 148 -35.5t98.5 -100t35.5 -150.5q0 -85 -35.5 -149.5t-98.5 -100t-148 -35.5zM443 173q32 0 56.5 12.5t38 33.5t13.5 48q0 28 -13.5 49t-38 33.5t-56.5 12.5q-33 0 -64 -12.5
t-54 -33.5t-33 -49q10 -27 33 -48t54 -33.5t64 -12.5zM302 0h-254v770h254v-362l-31 -63v-170l31 -55v-120zM548 581h-565v146h565v-146z" />
    <glyph glyph-name="uni0181" unicode="&#x181;" horiz-adv-x="1132" 
d="M230 750h603q104 0 163 -48.5t59 -134.5q0 -49 -22 -92t-71.5 -72.5t-132.5 -38.5l20 46q85 -3 142 -27t85.5 -66.5t28.5 -101.5q0 -61 -27.5 -110t-83.5 -77t-140 -28h-589l57 385l-49 315l89 -136h-73q-31 0 -46 -16.5t-15 -52.5q0 -30 5 -56.5t10 -44.5h-185
q-16 32 -29.5 72.5t-13.5 90.5q0 87 53.5 140t161.5 53zM517 56l-98 115h353q33 0 52 17.5t19 47.5q0 27 -18.5 46t-54.5 19h-296v168h258q26 0 43.5 16t17.5 41q0 23 -16 38t-45 15h-312l97 115l51 -309z" />
    <glyph glyph-name="uni0186" unicode="&#x186;" horiz-adv-x="949" 
d="M27 325h259q9 -41 33 -68.5t62.5 -41t90.5 -13.5q58 0 99.5 21t63.5 59.5t22 92.5t-22 93t-63.5 59.5t-99.5 20.5q-52 0 -90.5 -14.5t-62.5 -42t-33 -66.5h-259q12 103 70.5 180t154.5 120t220 43q134 0 234 -49t155.5 -137.5t55.5 -206.5t-55.5 -206.5t-155.5 -137.5
t-234 -49q-124 0 -220 43t-154.5 120t-70.5 180z" />
    <glyph glyph-name="uni0187" unicode="&#x187;" horiz-adv-x="1033" 
d="M470 768q143 0 232.5 -65t131.5 -178l-77 30q-22 38 -43.5 84t-21.5 91q0 47 21 87t66.5 64.5t118.5 24.5q36 0 72 -4.5t68 -14.5v-187q-17 5 -35.5 9t-39.5 4q-45 0 -66 -18.5t-21 -54.5q0 -17 3.5 -35t7.5 -37q6 -25 17.5 -62t18.5 -81h-259q-9 39 -33 66.5t-62.5 42
t-90.5 14.5q-58 0 -99.5 -20.5t-63.5 -59.5t-22 -93t22 -92.5t63.5 -59.5t99.5 -21q52 0 90.5 13.5t62.5 41t33 68.5h259q-12 -103 -70.5 -180t-154.5 -120t-220 -43q-134 0 -234 49t-155.5 137.5t-55.5 206.5q0 119 55.5 207t154.5 137t227 49z" />
    <glyph glyph-name="uni0188" unicode="&#x188;" horiz-adv-x="875" 
d="M752 748q46 0 79 -9.5t62 -22.5v-173q-28 11 -47.5 15t-39.5 4q-41 0 -59 -16.5t-18 -56.5q0 -29 7 -57t17 -63l14 -47h-251q-9 43 -40.5 64.5t-77.5 21.5q-35 0 -61.5 -13.5t-40.5 -40.5t-14 -67t14 -66.5t40.5 -40t61.5 -13.5q46 0 77.5 23.5t40.5 62.5h251
q-7 -81 -56.5 -142t-130.5 -95t-184 -34q-109 0 -192.5 38.5t-130.5 108t-47 161.5q0 89 43.5 157t120 107t176.5 39q60 0 113 -17t99 -60l32 -149q-39 51 -57.5 89.5t-18.5 90.5q0 101 58.5 151t159.5 50z" />
    <glyph glyph-name="uni0189" unicode="&#x189;" horiz-adv-x="966" 
d="M28 457h453v-162h-453v162zM478 750q137 0 239.5 -46.5t159.5 -130.5t57 -198q0 -113 -57 -197.5t-159.5 -131t-239.5 -46.5h-398v750h398zM336 115l-116 115h278q55 0 94.5 17.5t60.5 50t21 77.5q0 46 -21 78t-60.5 49.5t-94.5 17.5h-278l116 115v-520z" />
    <glyph glyph-name="uni018A" unicode="&#x18a;" horiz-adv-x="1206" 
d="M248 750h470q137 0 239.5 -46.5t159.5 -130.5t57 -198q0 -113 -57 -197.5t-159.5 -131t-239.5 -46.5h-398v636l71 -101h-96q-32 0 -48 -14t-16 -49q0 -22 4 -44t8 -34h-185q-16 32 -29.5 71t-13.5 90q0 89 54.5 142t178.5 53zM576 115l-116 115h278q55 0 94.5 17.5
t60.5 50t21 77.5q0 46 -21 78t-60.5 49.5t-94.5 17.5h-278l116 115v-520z" />
    <glyph glyph-name="uni018E" unicode="&#x18e;" horiz-adv-x="812" 
d="M83 464h565v-178h-565v178zM471 375l46 279l98 -108h-564v204h721l-55 -375l55 -375h-726v204h569l-98 -108z" />
    <glyph glyph-name="uni018F" unicode="&#x18f;" horiz-adv-x="949" 
d="M474 769q98 0 178.5 -28t140 -79.5t91.5 -124t32 -162.5q0 -119 -56.5 -207t-156 -136.5t-229.5 -48.5q-111 0 -194.5 34t-139 94.5t-83.5 141t-28 174.5h647v-158h-475l100 53q5 -48 28 -80t60 -48t83 -16q55 0 96.5 21t64.5 63.5t23 108.5q0 65 -23 108t-64.5 65
t-96.5 22q-48 0 -82.5 -13t-57 -33t-34.5 -43h-259q20 90 77.5 155.5t148 101t209.5 35.5z" />
    <glyph glyph-name="uni0190" unicode="&#x190;" horiz-adv-x="852" 
d="M817 500h-256q-6 35 -38.5 54.5t-97.5 19.5q-56 0 -86.5 -14.5t-30.5 -43.5q0 -26 24.5 -41t94.5 -15h124v-167h-124q-53 0 -81.5 -5.5t-39 -17.5t-10.5 -30q0 -31 35 -47.5t97 -16.5q75 0 110.5 20t41.5 57h256q-2 -83 -53 -144t-141.5 -94t-213.5 -33q-125 0 -213.5 31
t-134.5 84.5t-46 122.5q0 65 39 105t112 57t174 12v-22q-112 -1 -180 23.5t-98.5 66.5t-30.5 92q0 64 45 112t126.5 75t189.5 27q131 0 220 -37t136 -97.5t50 -133.5z" />
    <glyph glyph-name="uni0191" unicode="&#x191;" horiz-adv-x="791" 
d="M186 457h548v-215h-548v215zM318 90q0 -134 -69.5 -203.5t-209.5 -69.5q-36 0 -76.5 4.5t-72.5 14.5v187q17 -5 38.5 -9t45.5 -4q47 0 66.5 25t19.5 70v645h694v-215h-554l118 115v-560z" />
    <glyph glyph-name="florin" unicode="&#x192;" horiz-adv-x="677" 
d="M77 327v195h582v-195h-582zM516 788q44 0 80 -5.5t79 -16.5v-182q-31 8 -62.5 13t-65.5 5q-63 0 -83 -19t-20 -58v-435q0 -90 -37 -151t-107.5 -91.5t-171.5 -30.5q-39 0 -70 5.5t-69 16.5v182q26 -8 53 -13t55 -5q57 0 75 19t18 58v435q0 91 38 151.5t111 91t177 30.5z
" />
    <glyph glyph-name="uni0193" unicode="&#x193;" horiz-adv-x="1038" 
d="M464 -18q-87 0 -164.5 25t-137 74.5t-93.5 123t-34 170.5q0 101 36 175t96.5 122t135.5 72t154 24q130 0 221 -53.5t145 -180.5l-61 21q-22 38 -43.5 84t-21.5 91q0 48 21 88t66.5 64t118.5 24q36 0 72 -4.5t68 -14.5v-187q-17 5 -35.5 9t-39.5 4q-45 0 -66 -18.5
t-21 -54.5q0 -17 3.5 -35t7.5 -37q6 -25 14 -50.5t15 -48.5h-256q-9 28 -35.5 47.5t-64.5 30t-85 10.5q-58 0 -100 -19.5t-64.5 -59.5t-22.5 -103q0 -64 25.5 -106t73 -62t112.5 -20q63 0 112 14.5t79.5 45t37.5 77.5h109q-4 -66 -27.5 -127.5t-69 -110t-115.5 -76.5
t-166 -28zM520 255v146h410v-401h-179l-38 287l45 -32h-238z" />
    <glyph glyph-name="uni0194" unicode="&#x194;" horiz-adv-x="956" 
d="M347 115h247l-18 -59l-146 185h97l-154 -195zM87 0l312 394l-21 -152l-387 508h275l277 -358l-110 23l260 335h272l-386 -500l-28 151l318 -401h-782z" />
    <glyph glyph-name="uni0196" unicode="&#x196;" horiz-adv-x="478" 
d="M54 750h258v-480q0 -49 16 -72t59 -23q17 0 35 3.5t37 9.5v-187q-28 -8 -64.5 -13.5t-79.5 -5.5q-134 0 -197.5 69.5t-63.5 203.5v495z" />
    <glyph glyph-name="uni0197" unicode="&#x197;" horiz-adv-x="466" 
d="M24 300v170h418v-170h-418zM104 750h258v-750h-258v750z" />
    <glyph glyph-name="uni0198" unicode="&#x198;" horiz-adv-x="915" 
d="M420 345l190 149l295 -494h-293zM60 0v750h256v-549l-65 55l284 395q26 35 54.5 61.5t68 41t96.5 14.5q39 0 71 -5.5t63 -13.5v-187q-26 9 -47 13t-41 4q-35 0 -56.5 -13.5t-41.5 -38.5l-408 -527h-234z" />
    <glyph glyph-name="uni0199" unicode="&#x199;" horiz-adv-x="782" 
d="M302 197l-68 22l297 356h248l-507 -575h-224v511q0 146 76.5 211.5t237.5 65.5q49 0 93.5 -6.5t81.5 -15.5v-172q-25 8 -57.5 13.5t-67.5 5.5q-57 0 -83.5 -24t-26.5 -77v-315zM357 278l196 125l240 -403h-282z" />
    <glyph glyph-name="uni019A" unicode="&#x19a;" horiz-adv-x="470" 
d="M26 476h418v-146h-418v146zM108 770h254v-770h-254v770z" />
    <glyph glyph-name="uni019B" unicode="&#x19b;" horiz-adv-x="776" 
d="M141 455l-32 108l510 161l33 -109zM-16 0l221 456h242l-189 -456h-274zM227 788q84 0 157 -47t119 -144l280 -597h-275l-208 521q-18 45 -42.5 67t-68.5 22q-55 0 -100.5 -17.5t-89.5 -45.5v166q49 37 101 56t127 19z" />
    <glyph glyph-name="uni019C" unicode="&#x19c;" horiz-adv-x="1271" 
d="M1240 0h-258l-40 255v495h258v-544zM753 -18q-81 0 -138 35t-87 97.5t-30 146.5v489h258v-453q0 -48 23 -74t66 -26q31 0 52.5 13.5t33 39t11.5 61.5l75 -38q-14 -97 -52.5 -162t-93 -97t-118.5 -32zM310 -18q-81 0 -138 33.5t-87.5 94t-30.5 141.5v499h258v-453
q0 -48 23 -74t66 -26q31 0 52.5 13.5t33 39t11.5 61.5l75 -38q-14 -97 -52 -162t-92.5 -97t-118.5 -32z" />
    <glyph glyph-name="uni019D" unicode="&#x19d;" horiz-adv-x="995" 
d="M60 750h333l362 -562l-70 -17v579h250v-750h-323l-372 578l70 17v-505q0 -134 -65.5 -203.5t-205.5 -69.5q-36 0 -76.5 4.5t-72.5 14.5v187q17 -5 38.5 -9t45.5 -4q47 0 66.5 25t19.5 70v645z" />
    <glyph glyph-name="uni019E" unicode="&#x19e;" horiz-adv-x="820" 
d="M21 575h254l40 -245v-330h-254v369zM514 593q84 0 143 -33.5t90.5 -94t31.5 -141.5v-489h-254v453q0 48 -26.5 74t-74.5 26q-34 0 -58.5 -13.5t-37.5 -39t-13 -61.5l-75 38q14 94 54 156.5t97 93.5t123 31z" />
    <glyph glyph-name="uni019F" unicode="&#x19f;" horiz-adv-x="976" 
d="M92 462h754v-174h-754v174zM488 -18q-137 0 -239.5 49t-159.5 137.5t-57 206.5t57 206.5t159.5 137.5t239.5 49t239.5 -49t159.5 -137.5t57 -206.5t-57 -206.5t-159.5 -137.5t-239.5 -49zM488 194q64 0 110 21.5t71 62.5t25 97q0 57 -25 97.5t-71 62t-110 21.5
t-110 -21.5t-71 -62t-25 -97.5q0 -56 25 -97t71 -62.5t110 -21.5z" />
    <glyph glyph-name="Ohorn" unicode="&#x1a0;" horiz-adv-x="989" 
d="M488 -18q-137 0 -239.5 49t-159.5 137.5t-57 206.5t57 206.5t159.5 137.5t239.5 49q47 0 79 -4.5t58 -9.5q22 -4 42 -7.5t40 -3.5q48 0 67.5 18.5t19.5 40.5q0 17 -7.5 36t-23.5 42h186q18 -28 27.5 -56.5t9.5 -56.5q0 -52 -33.5 -90.5t-95.5 -55.5q42 -49 64.5 -111
t22.5 -135q0 -118 -57 -206.5t-159.5 -137.5t-239.5 -49zM488 212q61 0 105 19.5t67.5 56t23.5 87.5t-23.5 87.5t-67.5 56t-105 19.5t-105 -19.5t-67.5 -56t-23.5 -87.5t23.5 -87.5t67.5 -56t105 -19.5z" />
    <glyph glyph-name="ohorn" unicode="&#x1a1;" horiz-adv-x="849" 
d="M405 -18q-114 0 -199.5 38t-133 107t-47.5 160q0 92 47.5 161t133 107t199.5 38q50 0 83 -6t58 -11q14 -3 26 -4.5t22 -1.5q33 0 51.5 15.5t18.5 43.5q0 19 -6 39.5t-17 36.5h186q29 -52 29 -112q0 -53 -32.5 -88.5t-89.5 -51.5q25 -34 38 -76t13 -90q0 -91 -47.5 -160
t-133 -107t-199.5 -38zM405 167q40 0 67.5 14t42 41t14.5 65q0 39 -14.5 66t-42 41t-67.5 14q-39 0 -67 -14t-42.5 -41t-14.5 -66q0 -38 14.5 -65t42.5 -41t67 -14z" />
    <glyph glyph-name="uni01A4" unicode="&#x1a4;" horiz-adv-x="1097" 
d="M248 750h509q102 0 174.5 -33.5t110.5 -95t38 -144.5t-38 -144.5t-110.5 -95t-174.5 -33.5h-317v201h300q38 0 59 19t21 53q0 35 -21 53.5t-59 18.5h-278l116 116v-665h-258v634l112 -99h-137q-32 0 -48 -14t-16 -49q0 -22 4 -44t8 -34h-185q-16 32 -29.5 71t-13.5 90
q0 89 54.5 142t178.5 53z" />
    <glyph glyph-name="uni01A5" unicode="&#x1a5;" horiz-adv-x="833" 
d="M226 267q10 88 49.5 152t103.5 99t145 35q85 0 148 -35.5t98.5 -100t35.5 -150.5q0 -85 -35.5 -149.5t-98.5 -100t-148 -35.5q-82 0 -145.5 35.5t-102.5 99.5t-50 150zM550 267q0 28 -13.5 49t-38 33.5t-56.5 12.5q-33 0 -64 -12.5t-54 -33.5t-33 -49q10 -27 33 -48
t54 -33.5t64 -12.5q32 0 56.5 12.5t38 33.5t13.5 48zM47 511q0 146 76.5 211.5t237.5 65.5q49 0 93.5 -6.5t81.5 -15.5v-172q-25 8 -57.5 13.5t-67.5 5.5q-57 0 -83.5 -24t-26.5 -77v-79l-10 -28v-190l10 -55v-325h-254v676z" />
    <glyph glyph-name="uni01A9" unicode="&#x1a9;" horiz-adv-x="826" 
d="M44 0v183l337 233v-81l-327 232v183h721v-198h-623l87 127l314 -224v-158l-265 -182l-117 83h620v-198h-747z" />
    <glyph glyph-name="uni01AA" unicode="&#x1aa;" horiz-adv-x="669" 
d="M606 10q24 0 45.5 4t38.5 9v-187q-32 -10 -72.5 -14.5t-76.5 -4.5q-140 0 -203.5 69.5t-63.5 203.5v470q0 20 -5 33.5t-16 20t-28 6.5q-24 0 -36.5 -12.5t-12.5 -35.5q0 -25 15.5 -40.5t43.5 -15.5q26 0 47.5 14.5t34.5 48.5l108 -43q-35 -92 -85.5 -130.5t-118.5 -38.5
q-67 0 -120.5 26.5t-84 74t-30.5 110.5q0 62 30 109t89.5 74t146.5 27q86 0 148 -27.5t95 -84t33 -142.5v-429q0 -45 16 -70t62 -25z" />
    <glyph glyph-name="uni01AC" unicode="&#x1ac;" horiz-adv-x="942" 
d="M393 639h258v-639h-258v639zM921 750v-230h-619q-37 0 -54 -15t-17 -45q0 -19 4 -37t8 -29h-185q-16 32 -29.5 71t-13.5 90q0 89 54.5 142t178.5 53h673z" />
    <glyph glyph-name="uni01AD" unicode="&#x1ad;" horiz-adv-x="638" 
d="M6 479l138 70l-25 -38q0 146 76.5 211.5t237.5 65.5q49 0 93.5 -6.5t81.5 -15.5v-172q-25 8 -57.5 13.5t-67.5 5.5q-57 0 -83.5 -24t-26.5 -77l-26 43h251v-185h-225v-99q0 -55 21 -77.5t86 -22.5q40 0 71.5 5.5t56.5 13.5v-183q-34 -10 -83.5 -17.5t-103.5 -7.5
q-102 0 -169 30.5t-100 88.5t-33 138v131h-113v109z" />
    <glyph glyph-name="uni01AE" unicode="&#x1ae;" horiz-adv-x="844" 
d="M21 750h798v-230h-798v230zM627 10q24 0 45.5 4t38.5 9v-187q-32 -10 -72.5 -14.5t-76.5 -4.5q-139 0 -205 69.5t-66 203.5v549h258v-534q0 -45 16 -70t62 -25z" />
    <glyph glyph-name="Uhorn" unicode="&#x1af;" horiz-adv-x="1001" 
d="M308 344q0 -41 14.5 -70.5t44.5 -45.5t77 -16q48 0 78 15.5t44 45.5t14 71v406h258v-420q0 -105 -49 -183t-137.5 -121.5t-207.5 -43.5q-118 0 -206.5 43.5t-138 121.5t-49.5 183v420h258v-406zM1044 767q0 -71 -60.5 -111.5t-168.5 -40.5h-11h-11v135h2h1q26 0 41 14.5
t15 37.5q0 17 -7.5 36t-23.5 42h186q37 -57 37 -113z" />
    <glyph glyph-name="uhorn" unicode="&#x1b0;" horiz-adv-x="919" 
d="M299 -17q-81 0 -139 33.5t-88.5 94t-30.5 140.5v324h254v-288q0 -47 24.5 -73t69.5 -26q35 0 57.5 12.5t34 38t11.5 62.5l75 -38q-13 -93 -52.5 -155.5t-95 -93.5t-120.5 -31zM532 0l-40 245v330h254v-369l40 -206h-254zM953 592q0 -71 -60.5 -111.5t-168.5 -40.5h-11
h-11v135h2h1q26 0 41 14.5t15 37.5q0 17 -7.5 36t-23.5 42h186q37 -57 37 -113z" />
    <glyph glyph-name="uni01B1" unicode="&#x1b1;" horiz-adv-x="1002" 
d="M501 -18q-149 0 -247.5 47t-147 126.5t-48.5 178.5q0 132 90.5 225t253.5 127l-94 -114h-270v178h390v-159q-51 -25 -84.5 -75t-33.5 -119q0 -56 23 -98t66 -64.5t102 -22.5q60 0 102.5 22.5t65.5 64.5t23 98q0 69 -33.5 119t-84.5 75v159h390v-178h-270l-94 114
q164 -34 254 -127t90 -225q0 -99 -48.5 -178.5t-147 -126.5t-247.5 -47z" />
    <glyph glyph-name="uni01B2" unicode="&#x1b2;" horiz-adv-x="896" 
d="M51 337v413h256v-400q0 -52 14.5 -83.5t40 -45.5t58.5 -14q41 0 74.5 21.5t58 58.5t37.5 84.5t13 99.5q0 47 -23.5 77.5t-73.5 30.5q-25 0 -46.5 -4.5t-41.5 -12.5v184q27 9 67.5 15.5t92.5 6.5q138 0 211.5 -73.5t73.5 -222.5q0 -94 -32 -182t-93 -157.5t-147.5 -110
t-194.5 -40.5q-104 0 -182 42.5t-120.5 122t-42.5 190.5z" />
    <glyph glyph-name="uni01B3" unicode="&#x1b3;" horiz-adv-x="959" 
d="M348 0v370h258v-370h-258zM558 241h-165l-395 509h283l249 -321h-100l170 224q31 41 60.5 66t66 37t86.5 12q35 0 64.5 -5t58.5 -14v-184q-16 5 -32 7.5t-36 2.5q-32 0 -52.5 -13.5t-40.5 -39.5z" />
    <glyph glyph-name="uni01B4" unicode="&#x1b4;" horiz-adv-x="855" 
d="M238 77l-231 498h280l193 -498h-242zM270 -183q-72 0 -126.5 17.5t-108.5 57.5v171q53 -34 98.5 -49t98.5 -15q42 0 74 18t51 67l132 331q23 58 50.5 97.5t70 60t109.5 20.5q36 0 70.5 -7.5t58.5 -18.5v-157q-10 4 -27.5 9.5t-36.5 5.5q-31 0 -47.5 -17.5t-26.5 -41.5
l-150 -358q-30 -72 -78 -114t-103 -59.5t-109 -17.5z" />
    <glyph glyph-name="uni01B5" unicode="&#x1b5;" horiz-adv-x="834" 
d="M91 465h655v-170h-655v170zM45 0v183l449 415l194 -45h-640v198h738v-183l-448 -415l-166 45h617v-198h-744z" />
    <glyph glyph-name="uni01B6" unicode="&#x1b6;" horiz-adv-x="725" 
d="M60 363h608v-146h-608v146zM40 0v174l362 247l185 -24h-545v178h641v-174l-362 -247l-156 24h520v-178h-645z" />
    <glyph glyph-name="uni01B7" unicode="&#x1b7;" horiz-adv-x="843" 
d="M64 750h704v-183l-337 -197l-23 66h76q122 0 194 -25.5t103 -71t31 -106.5q0 -72 -43.5 -129t-131 -89.5t-219.5 -32.5q-122 0 -213 33t-141.5 94t-53.5 144h256q6 -37 41.5 -57t110.5 -20q69 0 100.5 19.5t31.5 51.5q0 21 -11 36t-37 23t-72 8h-135v158l356 204l19 -118
h-606v192z" />
    <glyph glyph-name="uni01B8" unicode="&#x1b8;" horiz-adv-x="843" 
d="M779 750v-192h-606l19 118l356 -204v-158h-135q-45 0 -71.5 -8t-37.5 -23t-11 -36q0 -32 31.5 -51.5t100.5 -19.5q75 0 110.5 20t41.5 57h256q-2 -83 -53 -144t-141.5 -94t-213.5 -33q-132 0 -219.5 32.5t-131 89.5t-43.5 129q0 61 31 106.5t103 71t194 25.5h76l-23 -66
l-337 197v183h704z" />
    <glyph glyph-name="uni01B9" unicode="&#x1b9;" horiz-adv-x="782" 
d="M721 575v-178h-555l18 105l355 -204v-151h-135q-45 0 -72.5 -10t-40 -26.5t-12.5 -36.5q0 -34 32.5 -56t91.5 -22q65 0 98 26t39 63h239q-2 -76 -46.5 -137t-127.5 -96t-202 -35q-124 0 -209 30.5t-128 85.5t-43 126q0 60 31 110.5t99.5 81.5t178.5 31h101l-20 -72
l-339 191v174h647z" />
    <glyph glyph-name="uni01C0" unicode="&#x1c0;" horiz-adv-x="330" 
d="M48 770h234v-875h-234v875z" />
    <glyph glyph-name="uni01C1" unicode="&#x1c1;" horiz-adv-x="676" 
d="M48 770h234v-875h-234v875zM394 770h234v-875h-234v875z" />
    <glyph glyph-name="uni01C2" unicode="&#x1c2;" horiz-adv-x="478" 
d="M47 528h384v-146h-384v146zM47 283h384v-146h-384v146zM122 770h234v-875h-234v875z" />
    <glyph glyph-name="uni01C3" unicode="&#x1c3;" horiz-adv-x="326" 
d="M30 750h266l-43 -460h-180zM163 -12q-61 0 -98 34.5t-37 90.5t37 90.5t98 34.5t98 -34.5t37 -90.5t-37 -90.5t-98 -34.5z" />
    <glyph glyph-name="uni01C4" unicode="&#x1c4;" horiz-adv-x="1754" 
d="M458 750q137 0 239.5 -46.5t159.5 -130.5t57 -198q0 -113 -57 -197.5t-159.5 -131t-239.5 -46.5h-398v750h398zM316 115l-116 115h278q55 0 94.5 17.5t60.5 50t21 77.5q0 46 -21 78t-60.5 49.5t-94.5 17.5h-278l116 115v-520zM967 0v183l449 415l194 -45h-640v198h738
v-183l-448 -415l-166 45h617v-198h-744zM1470 801h-262l-155 180h200l146 -104h-120l146 104h200z" />
    <glyph glyph-name="uni01C5" unicode="&#x1c5;" horiz-adv-x="1662" 
d="M459 750q137 0 239.5 -46.5t159.5 -130.5t57 -198q0 -113 -57 -197.5t-159.5 -131t-239.5 -46.5h-398v750h398zM317 115l-116 115h278q55 0 94.5 17.5t60.5 50t21 77.5q0 46 -21 78t-60.5 49.5t-94.5 17.5h-278l116 115v-520zM978 0v174l362 247l185 -24h-545v178h641
v-174l-362 -247l-156 24h520v-178h-645zM1429 627h-256l-143 200h195l136 -144h-120l136 144h195z" />
    <glyph glyph-name="uni01C6" unicode="&#x1c6;" horiz-adv-x="1566" 
d="M560 0l-29 214l39 71l-39 96l52 389h264l-64 -462l41 -308h-264zM608 287q-10 -92 -49.5 -160.5t-103 -106.5t-145.5 -38q-84 0 -147.5 38t-99 107t-35.5 160q0 92 35.5 161t99 107t147.5 38q82 0 145.5 -37.5t103.5 -106t49 -162.5zM284 287q0 -33 13.5 -58.5t38 -40.5
t56.5 -15q33 0 64 15t54.5 40.5t32.5 58.5q-9 33 -32.5 59t-54.5 41t-64 15q-32 0 -56.5 -15t-38 -41t-13.5 -59zM882 0v174l362 247l185 -24h-545v178h641v-174l-362 -247l-156 24h520v-178h-645zM1333 627h-256l-143 200h195l136 -144h-120l136 144h195z" />
    <glyph glyph-name="uni01C7" unicode="&#x1c7;" horiz-adv-x="1617" 
d="M318 750v-636l-116 116h558v-230h-700v750h258zM806 376h252v-20q0 -77 28 -115.5t96 -38.5q66 0 96 35t30 97v416h258v-430q0 -101 -48 -177.5t-134 -118.5t-202 -42q-113 0 -197.5 44t-130.5 123.5t-46 184.5z" />
    <glyph glyph-name="uni01C8" unicode="&#x1c8;" horiz-adv-x="1123" 
d="M319 750v-636l-116 116h558v-230h-700v750h258zM821 587l127 -26l127 26v-752h-254v752zM948 617q-64 0 -103 31t-39 85t39 85t103 31q65 0 103.5 -31t38.5 -85t-38.5 -85t-103.5 -31z" />
    <glyph glyph-name="uni01C9" unicode="&#x1c9;" horiz-adv-x="696" 
d="M48 770h254v-770h-254v770zM394 587l127 -26l127 26v-752h-254v752zM521 617q-64 0 -103 31t-39 85t39 85t103 31q65 0 103.5 -31t38.5 -85t-38.5 -85t-103.5 -31z" />
    <glyph glyph-name="uni01CA" unicode="&#x1ca;" horiz-adv-x="1824" 
d="M755 188l-70 -17v579h250v-750h-323l-372 578l70 17v-595h-250v750h333zM1013 376h252v-20q0 -77 28 -115.5t96 -38.5q66 0 96 35t30 97v416h258v-430q0 -101 -48 -177.5t-134 -118.5t-202 -42q-113 0 -197.5 44t-130.5 123.5t-46 184.5z" />
    <glyph glyph-name="uni01CB" unicode="&#x1cb;" horiz-adv-x="1345" 
d="M756 188l-70 -17v579h250v-750h-323l-372 578l70 17v-595h-250v750h333zM1043 587l127 -26l127 26v-752h-254v752zM1170 617q-64 0 -103 31t-39 85t39 85t103 31q65 0 103.5 -31t38.5 -85t-38.5 -85t-103.5 -31z" />
    <glyph glyph-name="uni01CC" unicode="&#x1cc;" horiz-adv-x="1164" 
d="M21 575h254l40 -245v-330h-254v369zM514 593q84 0 143 -33.5t90.5 -94t31.5 -141.5v-324h-254v288q0 48 -26.5 74t-74.5 26q-34 0 -58.5 -13.5t-37.5 -39t-13 -61.5l-75 38q14 94 54 156.5t97 93.5t123 31zM862 587l127 -26l127 26v-752h-254v752zM989 617q-64 0 -103 31
t-39 85t39 85t103 31q65 0 103.5 -31t38.5 -85t-38.5 -85t-103.5 -31z" />
    <glyph glyph-name="uni01CD" unicode="&#x1cd;" horiz-adv-x="996" 
d="M238 126v205h511v-205h-511zM670 750l329 -750h-275l-259 636h66l-259 -636h-275l329 750h344zM629 801h-262l-155 180h200l146 -104h-120l146 104h200z" />
    <glyph glyph-name="uni01CE" unicode="&#x1ce;" horiz-adv-x="852" 
d="M555 0l-29 203l29 84l-29 83l29 205h264l-40 -287l40 -288h-264zM608 287q-10 -92 -49.5 -160.5t-103 -106.5t-145.5 -38q-84 0 -147.5 38t-99 107t-35.5 160q0 92 35.5 161t99 107t147.5 38q82 0 145.5 -37.5t103.5 -106t49 -162.5zM284 287q0 -33 13.5 -58.5t38 -40.5
t56.5 -15q33 0 64 15t54.5 40.5t32.5 58.5q-9 33 -32.5 59t-54.5 41t-64 15q-32 0 -56.5 -15t-38 -41t-13.5 -59zM557 627h-256l-143 200h195l136 -144h-120l136 144h195z" />
    <glyph glyph-name="uni01CF" unicode="&#x1cf;" horiz-adv-x="378" 
d="M60 750h258v-750h-258v750zM320 801h-262l-155 180h200l146 -104h-120l146 104h200z" />
    <glyph glyph-name="uni01D0" unicode="&#x1d0;" horiz-adv-x="350" 
d="M48 587l127 -26l127 26v-587h-254v587zM303 627h-256l-143 200h195l136 -144h-120l136 144h195z" />
    <glyph glyph-name="uni01D1" unicode="&#x1d1;" horiz-adv-x="976" 
d="M488 -18q-137 0 -239.5 49t-159.5 137.5t-57 206.5t57 206.5t159.5 137.5t239.5 49t239.5 -49t159.5 -137.5t57 -206.5t-57 -206.5t-159.5 -137.5t-239.5 -49zM488 212q61 0 105 19.5t67.5 56t23.5 87.5t-23.5 87.5t-67.5 56t-105 19.5t-105 -19.5t-67.5 -56t-23.5 -87.5
t23.5 -87.5t67.5 -56t105 -19.5zM619 801h-262l-155 180h200l146 -104h-120l146 104h200z" />
    <glyph glyph-name="uni01D2" unicode="&#x1d2;" horiz-adv-x="810" 
d="M405 -18q-114 0 -199.5 38t-133 107t-47.5 160q0 92 47.5 161t133 107t199.5 38t199.5 -38t133 -107t47.5 -161q0 -91 -47.5 -160t-133 -107t-199.5 -38zM405 167q40 0 67.5 14t42 41t14.5 65q0 39 -14.5 66t-42 41t-67.5 14q-39 0 -67 -14t-42.5 -41t-14.5 -66
q0 -38 14.5 -65t42.5 -41t67 -14zM533 627h-256l-143 200h195l136 -144h-120l136 144h195z" />
    <glyph glyph-name="uni01D3" unicode="&#x1d3;" horiz-adv-x="889" 
d="M308 344q0 -41 14.5 -70.5t44.5 -45.5t77 -16q48 0 78 15.5t44 45.5t14 71v406h258v-420q0 -105 -49 -183t-137.5 -121.5t-207.5 -43.5q-118 0 -206.5 43.5t-138 121.5t-49.5 183v420h258v-406zM575 801h-262l-155 180h200l146 -104h-120l146 104h200z" />
    <glyph glyph-name="uni01D4" unicode="&#x1d4;" horiz-adv-x="807" 
d="M299 -17q-81 0 -139 33.5t-88.5 94t-30.5 140.5v324h254v-288q0 -47 24.5 -73t69.5 -26q35 0 57.5 12.5t34 38t11.5 62.5l75 -38q-13 -93 -52.5 -155.5t-95 -93.5t-120.5 -31zM532 0l-40 245v330h254v-369l40 -206h-254zM532 627h-256l-143 200h195l136 -144h-120
l136 144h195z" />
    <glyph glyph-name="uni01D5" unicode="&#x1d5;" horiz-adv-x="889" 
d="M308 344q0 -41 14.5 -70.5t44.5 -45.5t77 -16q48 0 78 15.5t44 45.5t14 71v406h258v-420q0 -105 -49 -183t-137.5 -121.5t-207.5 -43.5q-118 0 -206.5 43.5t-138 121.5t-49.5 183v420h258v-406zM284 792q-60 0 -95.5 29t-35.5 82q0 50 35.5 78.5t95.5 28.5t95.5 -28.5
t35.5 -78.5q0 -53 -35.5 -82t-95.5 -29zM604 792q-60 0 -95.5 29t-35.5 82q0 50 35.5 78.5t95.5 28.5t95.5 -28.5t35.5 -78.5q0 -53 -35.5 -82t-95.5 -29zM183 1049v147h524v-147h-524z" />
    <glyph glyph-name="uni01D6" unicode="&#x1d6;" horiz-adv-x="807" 
d="M299 -17q-81 0 -139 33.5t-88.5 94t-30.5 140.5v324h254v-288q0 -47 24.5 -73t69.5 -26q35 0 57.5 12.5t34 38t11.5 62.5l75 -38q-13 -93 -52.5 -155.5t-95 -93.5t-120.5 -31zM532 0l-40 245v330h254v-369l40 -206h-254zM247 617q-60 0 -95.5 29t-35.5 82q0 50 35.5 78.5
t95.5 28.5t95.5 -28.5t35.5 -78.5q0 -53 -35.5 -82t-95.5 -29zM561 617q-60 0 -95.5 29t-35.5 82q0 50 35.5 78.5t95.5 28.5t95.5 -28.5t35.5 -78.5q0 -53 -35.5 -82t-95.5 -29zM141 874v147h524v-147h-524z" />
    <glyph glyph-name="uni01D7" unicode="&#x1d7;" horiz-adv-x="889" 
d="M308 344q0 -41 14.5 -70.5t44.5 -45.5t77 -16q48 0 78 15.5t44 45.5t14 71v406h258v-420q0 -105 -49 -183t-137.5 -121.5t-207.5 -43.5q-118 0 -206.5 43.5t-138 121.5t-49.5 183v420h258v-406zM284 792q-60 0 -95.5 29t-35.5 82q0 50 35.5 78.5t95.5 28.5t95.5 -28.5
t35.5 -78.5q0 -53 -35.5 -82t-95.5 -29zM604 792q-60 0 -95.5 29t-35.5 82q0 50 35.5 78.5t95.5 28.5t95.5 -28.5t35.5 -78.5q0 -53 -35.5 -82t-95.5 -29zM447 1224h284l-180 -180h-252z" />
    <glyph glyph-name="uni01D8" unicode="&#x1d8;" horiz-adv-x="807" 
d="M299 -17q-81 0 -139 33.5t-88.5 94t-30.5 140.5v324h254v-288q0 -47 24.5 -73t69.5 -26q35 0 57.5 12.5t34 38t11.5 62.5l75 -38q-13 -93 -52.5 -155.5t-95 -93.5t-120.5 -31zM532 0l-40 245v330h254v-369l40 -206h-254zM247 617q-60 0 -95.5 29t-35.5 82q0 50 35.5 78.5
t95.5 28.5t95.5 -28.5t35.5 -78.5q0 -53 -35.5 -82t-95.5 -29zM561 617q-60 0 -95.5 29t-35.5 82q0 50 35.5 78.5t95.5 28.5t95.5 -28.5t35.5 -78.5q0 -53 -35.5 -82t-95.5 -29zM407 1059h284l-180 -180h-252z" />
    <glyph glyph-name="uni01D9" unicode="&#x1d9;" horiz-adv-x="889" 
d="M308 344q0 -41 14.5 -70.5t44.5 -45.5t77 -16q48 0 78 15.5t44 45.5t14 71v406h258v-420q0 -105 -49 -183t-137.5 -121.5t-207.5 -43.5q-118 0 -206.5 43.5t-138 121.5t-49.5 183v420h258v-406zM284 792q-60 0 -95.5 29t-35.5 82q0 50 35.5 78.5t95.5 28.5t95.5 -28.5
t35.5 -78.5q0 -53 -35.5 -82t-95.5 -29zM604 792q-60 0 -95.5 29t-35.5 82q0 50 35.5 78.5t95.5 28.5t95.5 -28.5t35.5 -78.5q0 -53 -35.5 -82t-95.5 -29zM576 1043h-262l-155 180h200l146 -104h-120l146 104h200z" />
    <glyph glyph-name="uni01DA" unicode="&#x1da;" horiz-adv-x="807" 
d="M299 -17q-81 0 -139 33.5t-88.5 94t-30.5 140.5v324h254v-288q0 -47 24.5 -73t69.5 -26q35 0 57.5 12.5t34 38t11.5 62.5l75 -38q-13 -93 -52.5 -155.5t-95 -93.5t-120.5 -31zM532 0l-40 245v330h254v-369l40 -206h-254zM247 617q-60 0 -95.5 29t-35.5 82q0 50 35.5 78.5
t95.5 28.5t95.5 -28.5t35.5 -78.5q0 -53 -35.5 -82t-95.5 -29zM561 617q-60 0 -95.5 29t-35.5 82q0 50 35.5 78.5t95.5 28.5t95.5 -28.5t35.5 -78.5q0 -53 -35.5 -82t-95.5 -29zM536 878h-262l-155 180h200l146 -104h-120l146 104h200z" />
    <glyph glyph-name="uni01DB" unicode="&#x1db;" horiz-adv-x="889" 
d="M308 344q0 -41 14.5 -70.5t44.5 -45.5t77 -16q48 0 78 15.5t44 45.5t14 71v406h258v-420q0 -105 -49 -183t-137.5 -121.5t-207.5 -43.5q-118 0 -206.5 43.5t-138 121.5t-49.5 183v420h258v-406zM284 792q-60 0 -95.5 29t-35.5 82q0 50 35.5 78.5t95.5 28.5t95.5 -28.5
t35.5 -78.5q0 -53 -35.5 -82t-95.5 -29zM604 792q-60 0 -95.5 29t-35.5 82q0 50 35.5 78.5t95.5 28.5t95.5 -28.5t35.5 -78.5q0 -53 -35.5 -82t-95.5 -29zM434 1224l148 -180h-252l-180 180h284z" />
    <glyph glyph-name="uni01DC" unicode="&#x1dc;" horiz-adv-x="807" 
d="M299 -17q-81 0 -139 33.5t-88.5 94t-30.5 140.5v324h254v-288q0 -47 24.5 -73t69.5 -26q35 0 57.5 12.5t34 38t11.5 62.5l75 -38q-13 -93 -52.5 -155.5t-95 -93.5t-120.5 -31zM532 0l-40 245v330h254v-369l40 -206h-254zM247 617q-60 0 -95.5 29t-35.5 82q0 50 35.5 78.5
t95.5 28.5t95.5 -28.5t35.5 -78.5q0 -53 -35.5 -82t-95.5 -29zM561 617q-60 0 -95.5 29t-35.5 82q0 50 35.5 78.5t95.5 28.5t95.5 -28.5t35.5 -78.5q0 -53 -35.5 -82t-95.5 -29zM394 1059l148 -180h-252l-180 180h284z" />
    <glyph glyph-name="uni01DD" unicode="&#x1dd;" horiz-adv-x="751" 
d="M352 593q107 0 191.5 -38.5t133.5 -107.5t49 -162q0 -91 -47.5 -159t-129 -106t-184.5 -38q-106 0 -181.5 45.5t-115.5 129t-40 197.5h490v-139h-342l68 47q5 -35 19 -59t37 -36.5t55 -12.5q37 0 62.5 14.5t39 39.5t13.5 56q0 48 -21.5 81t-65.5 49.5t-111 16.5
q-61 0 -120.5 -14t-109.5 -40v154q64 40 140 61t170 21z" />
    <glyph glyph-name="uni01DE" unicode="&#x1de;" horiz-adv-x="996" 
d="M238 126v205h511v-205h-511zM670 750l329 -750h-275l-259 636h66l-259 -636h-275l329 750h344zM338 792q-60 0 -95.5 29t-35.5 82q0 50 35.5 78.5t95.5 28.5t95.5 -28.5t35.5 -78.5q0 -53 -35.5 -82t-95.5 -29zM658 792q-60 0 -95.5 29t-35.5 82q0 50 35.5 78.5
t95.5 28.5t95.5 -28.5t35.5 -78.5q0 -53 -35.5 -82t-95.5 -29zM237 1049v147h524v-147h-524z" />
    <glyph glyph-name="uni01DF" unicode="&#x1df;" horiz-adv-x="852" 
d="M555 0l-29 203l29 84l-29 83l29 205h264l-40 -287l40 -288h-264zM608 287q-10 -92 -49.5 -160.5t-103 -106.5t-145.5 -38q-84 0 -147.5 38t-99 107t-35.5 160q0 92 35.5 161t99 107t147.5 38q82 0 145.5 -37.5t103.5 -106t49 -162.5zM284 287q0 -33 13.5 -58.5t38 -40.5
t56.5 -15q33 0 64 15t54.5 40.5t32.5 58.5q-9 33 -32.5 59t-54.5 41t-64 15q-32 0 -56.5 -15t-38 -41t-13.5 -59zM272 617q-60 0 -95.5 29t-35.5 82q0 50 35.5 78.5t95.5 28.5t95.5 -28.5t35.5 -78.5q0 -53 -35.5 -82t-95.5 -29zM586 617q-60 0 -95.5 29t-35.5 82
q0 50 35.5 78.5t95.5 28.5t95.5 -28.5t35.5 -78.5q0 -53 -35.5 -82t-95.5 -29zM166 874v147h524v-147h-524z" />
    <glyph glyph-name="uni01E0" unicode="&#x1e0;" horiz-adv-x="996" 
d="M238 126v205h511v-205h-511zM670 750l329 -750h-275l-259 636h66l-259 -636h-275l329 750h344zM498 792q-64 0 -103 31t-39 85t39 85t103 31q65 0 103.5 -31t38.5 -85t-38.5 -85t-103.5 -31zM236 1049v147h524v-147h-524z" />
    <glyph glyph-name="uni01E1" unicode="&#x1e1;" horiz-adv-x="852" 
d="M555 0l-29 203l29 84l-29 83l29 205h264l-40 -287l40 -288h-264zM608 287q-10 -92 -49.5 -160.5t-103 -106.5t-145.5 -38q-84 0 -147.5 38t-99 107t-35.5 160q0 92 35.5 161t99 107t147.5 38q82 0 145.5 -37.5t103.5 -106t49 -162.5zM284 287q0 -33 13.5 -58.5t38 -40.5
t56.5 -15q33 0 64 15t54.5 40.5t32.5 58.5q-9 33 -32.5 59t-54.5 41t-64 15q-32 0 -56.5 -15t-38 -41t-13.5 -59zM429 617q-64 0 -103 31t-39 85t39 85t103 31q65 0 103.5 -31t38.5 -85t-38.5 -85t-103.5 -31zM167 874v147h524v-147h-524z" />
    <glyph glyph-name="uni01E2" unicode="&#x1e2;" horiz-adv-x="1266" 
d="M827 286l28 -82h365v-204h-553l-227 677h82l-247 -677h-275l299 750h916v-204h-475l28 -82h415v-178h-356zM221 126v205h481v-205h-481zM480 817v147h524v-147h-524z" />
    <glyph glyph-name="uni01E3" unicode="&#x1e3;" horiz-adv-x="1270" 
d="M975 -18q-112 0 -192 39.5t-123 108.5t-43 157q0 94 38.5 162.5t109 106t165.5 37.5q102 0 173 -43t106.5 -123.5t30.5 -192.5h-477v117h327l-55 -38q-4 38 -19 64.5t-40 40t-59 13.5q-35 0 -61.5 -15t-40.5 -42t-14 -63q0 -45 22 -78t69 -51t120 -18q60 0 115 10.5
t97 28.5v-144q-35 -23 -71 -40.5t-78.5 -27t-99.5 -9.5zM541 0l-20 203l29 84l-29 83l20 205h183l20 -281l-20 -294h-183zM608 287q-10 -92 -49.5 -160.5t-103 -106.5t-145.5 -38q-84 0 -147.5 38t-99 107t-35.5 160q0 92 35.5 161t99 107t147.5 38q82 0 145.5 -37.5
t103.5 -106t49 -162.5zM284 287q0 -33 13.5 -58.5t38 -40.5t56.5 -15q33 0 64 15t54.5 40.5t32.5 58.5q-9 33 -32.5 59t-54.5 41t-64 15q-32 0 -56.5 -15t-38 -41t-13.5 -59zM370 642v147h524v-147h-524z" />
    <glyph glyph-name="uni01E4" unicode="&#x1e4;" horiz-adv-x="1018" 
d="M489 282h519v-109h-519v109zM528 433h400v-36h-88q0 -88 -22 -163.5t-67.5 -132t-117.5 -88t-171 -31.5q-128 0 -224.5 49t-150.5 137.5t-54 206.5q0 97 34 170.5t95 123t141 74.5t173 25q127 0 214 -34.5t141.5 -94.5t83.5 -139h-271q-8 13 -30.5 26t-55.5 22t-73 9
q-60 0 -103.5 -19.5t-67 -59.5t-23.5 -103q0 -55 20.5 -97.5t64.5 -66.5t114 -24q80 0 132 19t77.5 51.5t25.5 73.5v25l31 -58h-228v135zM737 414h191v-413h-158z" />
    <glyph glyph-name="uni01E5" unicode="&#x1e5;" horiz-adv-x="892" 
d="M246 83h628v-106h-628v106zM536 107v135l8 28v161l-8 21v123h254v-442q0 -97 -51 -168t-144 -109.5t-221 -38.5q-82 0 -151.5 21t-140.5 61v165q62 -45 132.5 -66.5t143.5 -21.5q86 0 132 28.5t46 102.5zM309 91q-82 0 -146 31.5t-100.5 88t-36.5 131.5q0 76 36.5 132
t100.5 87.5t146 31.5q78 0 137.5 -27.5t99.5 -69.5t60.5 -84.5t20.5 -72.5q0 -34 -20.5 -76.5t-60.5 -81.5t-99.5 -64.5t-137.5 -25.5zM398 259q50 0 87 21.5t59 61.5q-23 41 -60 62t-86 21q-35 0 -61.5 -9.5t-41 -28t-14.5 -45.5q0 -26 14 -45t40.5 -28.5t62.5 -9.5z" />
    <glyph glyph-name="Gcaron" unicode="&#x1e6;" horiz-adv-x="976" 
d="M840 324q-4 -66 -27.5 -127.5t-69 -110t-115.5 -76.5t-166 -28q-87 0 -164.5 25t-137 74.5t-93.5 123t-34 170.5t34 170.5t95 123t141 74.5t173 25q130 0 222.5 -38.5t149 -105.5t74.5 -155h-259q-9 28 -35.5 47.5t-64.5 30t-85 10.5q-58 0 -100 -19.5t-64.5 -59.5
t-22.5 -103q0 -64 25.5 -106t73 -62t112.5 -20q63 0 112 14.5t79.5 45t37.5 77.5h109zM518 224v177h410v-401h-179l-38 287l45 -63h-238zM608 801h-262l-155 180h200l146 -104h-120l146 104h200z" />
    <glyph glyph-name="gcaron" unicode="&#x1e7;" horiz-adv-x="836" 
d="M536 147v95l8 28v161l-8 21v123h254v-422q0 -103 -51 -178.5t-144 -116.5t-221 -41q-82 0 -151.5 21t-140.5 61v185q62 -45 132.5 -66.5t143.5 -21.5q86 0 132 33t46 118zM309 71q-82 0 -146 32.5t-100.5 91.5t-36.5 137q0 79 36.5 137.5t100.5 91t146 32.5
q62 0 112.5 -19t89 -50t64.5 -66.5t39 -69.5t13 -59q0 -35 -20.5 -79t-60.5 -85t-99.5 -67.5t-137.5 -26.5zM398 239q50 0 87 24t59 69q-23 46 -60 69.5t-86 23.5q-35 0 -61.5 -10.5t-41 -31.5t-14.5 -51q0 -29 14 -50t40.5 -32t62.5 -11zM563 627h-256l-143 200h195
l136 -144h-120l136 144h195z" />
    <glyph glyph-name="uni01E8" unicode="&#x1e8;" horiz-adv-x="895" 
d="M60 0v750h256v-549l-65 55l373 494h270l-600 -750h-234zM420 345l190 149l294 -494h-292zM604 801h-262l-155 180h200l146 -104h-120l146 104h200z" />
    <glyph glyph-name="uni01E9" unicode="&#x1e9;" horiz-adv-x="782" 
d="M302 197l-68 22l287 356h258l-507 -575h-224v770h254v-573zM357 278l196 125l240 -403h-282zM532 821h-262l-155 180h200l146 -104h-120l146 104h200z" />
    <glyph glyph-name="uni01EA" unicode="&#x1ea;" horiz-adv-x="976" 
d="M640 -206q-13 -5 -48 -10.5t-73 -5.5q-77 0 -124.5 27t-47.5 71q0 48 50 81.5t144 52.5l-15 -28q-111 -5 -201.5 21t-156 78t-101 127t-35.5 167q0 118 57 206.5t159.5 137.5t239.5 49t239.5 -49t159.5 -137.5t57 -206.5q0 -94 -37 -170t-105 -128.5t-162 -76.5
q-58 -15 -88.5 -31t-30.5 -32q0 -26 62 -26q17 0 30.5 2t26.5 5v-124zM292 375q0 -51 23.5 -87.5t67.5 -56t105 -19.5t105 19.5t67.5 56t23.5 87.5t-23.5 87.5t-67.5 56t-105 19.5t-105 -19.5t-67.5 -56t-23.5 -87.5z" />
    <glyph glyph-name="uni01EB" unicode="&#x1eb;" horiz-adv-x="810" 
d="M528 -5q-45 -13 -68.5 -28.5t-23.5 -29.5q0 -26 62 -26q17 0 30.5 2t26.5 5v-124q-13 -5 -48 -10.5t-73 -5.5q-77 0 -124.5 27t-47.5 71q0 50 54 86t161 56l-21 -34q-13 -1 -25.5 -1.5t-24.5 -0.5q-114 0 -200 38t-133.5 107t-47.5 160q0 92 47.5 161t133 107t199.5 38
t199.5 -38t133 -107t47.5 -161q0 -74 -31.5 -133.5t-89 -100t-136.5 -58.5zM281 287q0 -38 14.5 -65t42.5 -41t67 -14q40 0 67.5 14t42 41t14.5 65q0 39 -14.5 66t-42 41t-67.5 14q-39 0 -67 -14t-42.5 -41t-14.5 -66z" />
    <glyph glyph-name="uni01EC" unicode="&#x1ec;" horiz-adv-x="976" 
d="M640 -206q-13 -5 -48 -10.5t-73 -5.5q-77 0 -124.5 27t-47.5 71q0 48 50 81.5t144 52.5l-15 -28q-111 -5 -201.5 21t-156 78t-101 127t-35.5 167q0 118 57 206.5t159.5 137.5t239.5 49t239.5 -49t159.5 -137.5t57 -206.5q0 -94 -37 -170t-105 -128.5t-162 -76.5
q-58 -15 -88.5 -31t-30.5 -32q0 -26 62 -26q17 0 30.5 2t26.5 5v-124zM292 375q0 -51 23.5 -87.5t67.5 -56t105 -19.5t105 19.5t67.5 56t23.5 87.5t-23.5 87.5t-67.5 56t-105 19.5t-105 -19.5t-67.5 -56t-23.5 -87.5zM226 817v147h524v-147h-524z" />
    <glyph glyph-name="uni01ED" unicode="&#x1ed;" horiz-adv-x="810" 
d="M528 -5q-45 -13 -68.5 -28.5t-23.5 -29.5q0 -26 62 -26q17 0 30.5 2t26.5 5v-124q-13 -5 -48 -10.5t-73 -5.5q-77 0 -124.5 27t-47.5 71q0 50 54 86t161 56l-21 -34q-13 -1 -25.5 -1.5t-24.5 -0.5q-114 0 -200 38t-133.5 107t-47.5 160q0 92 47.5 161t133 107t199.5 38
t199.5 -38t133 -107t47.5 -161q0 -74 -31.5 -133.5t-89 -100t-136.5 -58.5zM281 287q0 -38 14.5 -65t42.5 -41t67 -14q40 0 67.5 14t42 41t14.5 65q0 39 -14.5 66t-42 41t-67.5 14q-39 0 -67 -14t-42.5 -41t-14.5 -66zM143 642v147h524v-147h-524z" />
    <glyph glyph-name="uni01EE" unicode="&#x1ee;" horiz-adv-x="843" 
d="M64 750h704v-183l-337 -197l-23 66h76q122 0 194 -25.5t103 -71t31 -106.5q0 -72 -43.5 -129t-131 -89.5t-219.5 -32.5q-122 0 -213 33t-141.5 94t-53.5 144h256q6 -37 41.5 -57t110.5 -20q69 0 100.5 19.5t31.5 51.5q0 21 -11 36t-37 23t-72 8h-135v158l356 204l19 -118
h-606v192zM547 801h-262l-155 180h200l146 -104h-120l146 104h200z" />
    <glyph glyph-name="uni01EF" unicode="&#x1ef;" horiz-adv-x="781" 
d="M60 575h647v-174l-339 -191l-20 72h101q111 0 179 -31t99 -81.5t31 -110.5q0 -71 -43 -126t-127.5 -85.5t-209.5 -30.5q-118 0 -201.5 35t-127.5 96t-47 137h239q6 -37 39 -63t98 -26q59 0 91.5 22t32.5 56q0 20 -12.5 36.5t-40 26.5t-72.5 10h-135v151l355 204l18 -105
h-555v178zM522 627h-256l-143 200h195l136 -144h-120l136 144h195z" />
    <glyph glyph-name="uni01F0" unicode="&#x1f0;" horiz-adv-x="350" 
d="M48 587l127 -26l127 26v-752h-254v752zM303 627h-256l-143 200h195l136 -144h-120l136 144h195z" />
    <glyph glyph-name="uni01F1" unicode="&#x1f1;" horiz-adv-x="1754" 
d="M458 750q137 0 239.5 -46.5t159.5 -130.5t57 -198q0 -113 -57 -197.5t-159.5 -131t-239.5 -46.5h-398v750h398zM316 115l-116 115h278q55 0 94.5 17.5t60.5 50t21 77.5q0 46 -21 78t-60.5 49.5t-94.5 17.5h-278l116 115v-520zM967 0v183l449 415l194 -45h-640v198h738
v-183l-448 -415l-166 45h617v-198h-744z" />
    <glyph glyph-name="uni01F2" unicode="&#x1f2;" horiz-adv-x="1662" 
d="M459 750q137 0 239.5 -46.5t159.5 -130.5t57 -198q0 -113 -57 -197.5t-159.5 -131t-239.5 -46.5h-398v750h398zM317 115l-116 115h278q55 0 94.5 17.5t60.5 50t21 77.5q0 46 -21 78t-60.5 49.5t-94.5 17.5h-278l116 115v-520zM978 0v174l362 247l185 -24h-545v178h641
v-174l-362 -247l-156 24h520v-178h-645z" />
    <glyph glyph-name="uni01F3" unicode="&#x1f3;" horiz-adv-x="1566" 
d="M560 0l-29 214l39 71l-39 96l52 389h264l-64 -462l41 -308h-264zM608 287q-10 -92 -49.5 -160.5t-103 -106.5t-145.5 -38q-84 0 -147.5 38t-99 107t-35.5 160q0 92 35.5 161t99 107t147.5 38q82 0 145.5 -37.5t103.5 -106t49 -162.5zM284 287q0 -33 13.5 -58.5t38 -40.5
t56.5 -15q33 0 64 15t54.5 40.5t32.5 58.5q-9 33 -32.5 59t-54.5 41t-64 15q-32 0 -56.5 -15t-38 -41t-13.5 -59zM882 0v174l362 247l185 -24h-545v178h641v-174l-362 -247l-156 24h520v-178h-645z" />
    <glyph glyph-name="uni01F4" unicode="&#x1f4;" horiz-adv-x="976" 
d="M840 324q-4 -66 -27.5 -127.5t-69 -110t-115.5 -76.5t-166 -28q-87 0 -164.5 25t-137 74.5t-93.5 123t-34 170.5t34 170.5t95 123t141 74.5t173 25q130 0 222.5 -38.5t149 -105.5t74.5 -155h-259q-9 28 -35.5 47.5t-64.5 30t-85 10.5q-58 0 -100 -19.5t-64.5 -59.5
t-22.5 -103q0 -64 25.5 -106t73 -62t112.5 -20q63 0 112 14.5t79.5 45t37.5 77.5h109zM518 224v177h410v-401h-179l-38 287l45 -63h-238zM479 982h284l-180 -180h-252z" />
    <glyph glyph-name="uni01F5" unicode="&#x1f5;" horiz-adv-x="836" 
d="M536 147v95l8 28v161l-8 21v123h254v-422q0 -103 -51 -178.5t-144 -116.5t-221 -41q-82 0 -151.5 21t-140.5 61v185q62 -45 132.5 -66.5t143.5 -21.5q86 0 132 33t46 118zM309 71q-82 0 -146 32.5t-100.5 91.5t-36.5 137q0 79 36.5 137.5t100.5 91t146 32.5
q62 0 112.5 -19t89 -50t64.5 -66.5t39 -69.5t13 -59q0 -35 -20.5 -79t-60.5 -85t-99.5 -67.5t-137.5 -26.5zM398 239q50 0 87 24t59 69q-23 46 -60 69.5t-86 23.5q-35 0 -61.5 -10.5t-41 -31.5t-14.5 -51q0 -29 14 -50t40.5 -32t62.5 -11zM426 827h244l-140 -200h-232z" />
    <glyph glyph-name="uni01F8" unicode="&#x1f8;" horiz-adv-x="995" 
d="M755 188l-70 -17v579h250v-750h-323l-372 578l70 17v-595h-250v750h333zM501 982l148 -180h-252l-180 180h284z" />
    <glyph glyph-name="uni01F9" unicode="&#x1f9;" horiz-adv-x="820" 
d="M21 575h254l40 -245v-330h-254v369zM514 593q84 0 143 -33.5t90.5 -94t31.5 -141.5v-324h-254v288q0 48 -26.5 74t-74.5 26q-34 0 -58.5 -13.5t-37.5 -39t-13 -61.5l-75 38q14 94 54 156.5t97 93.5t123 31zM409 827l128 -200h-232l-140 200h244z" />
    <glyph glyph-name="Aringacute" unicode="&#x1fa;" horiz-adv-x="996" 
d="M472 1262h224l-112 -203h-182zM238 126v205h511v-205h-511zM670 750l329 -750h-275l-259 636h66l-259 -636h-275l329 750h344zM498 782q-106 0 -164 39t-58 111t58 111t164 39q107 0 164.5 -39t57.5 -111t-57.5 -111t-164.5 -39zM498 886q46 0 66 12t20 34t-20 34t-66 12
t-66 -12t-20 -34t20 -34t66 -12z" />
    <glyph glyph-name="aringacute" unicode="&#x1fb;" horiz-adv-x="852" 
d="M403 1097h224l-112 -203h-182zM555 0l-29 203l29 84l-29 83l29 205h264l-40 -287l40 -288h-264zM608 287q-10 -92 -49.5 -160.5t-103 -106.5t-145.5 -38q-84 0 -147.5 38t-99 107t-35.5 160q0 92 35.5 161t99 107t147.5 38q82 0 145.5 -37.5t103.5 -106t49 -162.5z
M284 287q0 -33 13.5 -58.5t38 -40.5t56.5 -15q33 0 64 15t54.5 40.5t32.5 58.5q-9 33 -32.5 59t-54.5 41t-64 15q-32 0 -56.5 -15t-38 -41t-13.5 -59zM429 617q-99 0 -154.5 40t-55.5 110q0 71 55.5 110.5t154.5 39.5t154.5 -39.5t55.5 -110.5q0 -70 -55.5 -110t-154.5 -40z
M429 713q35 0 54 14.5t19 39.5q0 26 -19 40t-54 14q-34 0 -53.5 -14t-19.5 -40q0 -25 19.5 -39.5t53.5 -14.5z" />
    <glyph glyph-name="AEacute" unicode="&#x1fc;" horiz-adv-x="1266" 
d="M827 286l28 -82h365v-204h-553l-227 677h82l-247 -677h-275l299 750h916v-204h-475l28 -82h415v-178h-356zM221 126v205h481v-205h-481zM744 982h284l-180 -180h-252z" />
    <glyph glyph-name="aeacute" unicode="&#x1fd;" horiz-adv-x="1270" 
d="M975 -18q-112 0 -192 39.5t-123 108.5t-43 157q0 94 38.5 162.5t109 106t165.5 37.5q102 0 173 -43t106.5 -123.5t30.5 -192.5h-477v117h327l-55 -38q-4 38 -19 64.5t-40 40t-59 13.5q-35 0 -61.5 -15t-40.5 -42t-14 -63q0 -45 22 -78t69 -51t120 -18q60 0 115 10.5
t97 28.5v-144q-35 -23 -71 -40.5t-78.5 -27t-99.5 -9.5zM541 0l-20 203l29 84l-29 83l20 205h183l20 -281l-20 -294h-183zM608 287q-10 -92 -49.5 -160.5t-103 -106.5t-145.5 -38q-84 0 -147.5 38t-99 107t-35.5 160q0 92 35.5 161t99 107t147.5 38q82 0 145.5 -37.5
t103.5 -106t49 -162.5zM284 287q0 -33 13.5 -58.5t38 -40.5t56.5 -15q33 0 64 15t54.5 40.5t32.5 58.5q-9 33 -32.5 59t-54.5 41t-64 15q-32 0 -56.5 -15t-38 -41t-13.5 -59zM623 827h244l-140 -200h-232z" />
    <glyph glyph-name="Oslashacute" unicode="&#x1fe;" horiz-adv-x="976" 
d="M703 770h221l-651 -790h-221zM488 -18q-137 0 -239.5 49t-159.5 137.5t-57 206.5t57 206.5t159.5 137.5t239.5 49q103 0 186.5 -28t144 -80t93 -124t32.5 -161q0 -118 -57 -206.5t-159.5 -137.5t-239.5 -49zM488 194q64 0 110 21.5t71 62.5t25 97q0 57 -25 97.5t-71 62
t-110 21.5t-110 -21.5t-71 -62t-25 -97.5q0 -56 25 -97t71 -62.5t110 -21.5zM490 982h284l-180 -180h-252z" />
    <glyph glyph-name="oslashacute" unicode="&#x1ff;" horiz-adv-x="810" 
d="M554 603h221l-519 -631h-221zM405 -18q-114 0 -199.5 38t-133 107t-47.5 160q0 92 47.5 161t133 107t199.5 38t199.5 -38t133 -107t47.5 -161q0 -91 -47.5 -160t-133 -107t-199.5 -38zM405 147q44 0 75 16.5t47 48t16 75.5q0 45 -16 76.5t-47 48t-75 16.5t-75 -16.5
t-47 -48t-16 -76.5q0 -44 16 -75.5t47 -48t75 -16.5zM396 827h244l-140 -200h-232z" />
    <glyph glyph-name="uni0200" unicode="&#x200;" horiz-adv-x="996" 
d="M238 126v205h511v-205h-511zM670 750l329 -750h-275l-259 636h66l-259 -636h-275l329 750h344zM627 982l125 -180h-217l-147 180h239zM335 982l125 -180h-217l-147 180h239z" />
    <glyph glyph-name="uni0201" unicode="&#x201;" horiz-adv-x="852" 
d="M555 0l-29 203l29 84l-29 83l29 205h264l-40 -287l40 -288h-264zM608 287q-10 -92 -49.5 -160.5t-103 -106.5t-145.5 -38q-84 0 -147.5 38t-99 107t-35.5 160q0 92 35.5 161t99 107t147.5 38q82 0 145.5 -37.5t103.5 -106t49 -162.5zM284 287q0 -33 13.5 -58.5t38 -40.5
t56.5 -15q33 0 64 15t54.5 40.5t32.5 58.5q-9 33 -32.5 59t-54.5 41t-64 15q-32 0 -56.5 -15t-38 -41t-13.5 -59zM558 827l115 -200h-207l-127 200h219zM276 827l115 -200h-207l-127 200h219z" />
    <glyph glyph-name="uni0202" unicode="&#x202;" horiz-adv-x="996" 
d="M238 126v205h511v-205h-511zM670 750l329 -750h-275l-259 636h66l-259 -636h-275l329 750h344zM778 796h-190q-16 22 -38 33t-52 11t-52 -11t-38 -33h-190q29 100 103 147.5t177 47.5q104 0 178 -47.5t102 -147.5z" />
    <glyph glyph-name="uni0203" unicode="&#x203;" horiz-adv-x="852" 
d="M555 0l-29 203l29 84l-29 83l29 205h264l-40 -287l40 -288h-264zM608 287q-10 -92 -49.5 -160.5t-103 -106.5t-145.5 -38q-84 0 -147.5 38t-99 107t-35.5 160q0 92 35.5 161t99 107t147.5 38q82 0 145.5 -37.5t103.5 -106t49 -162.5zM284 287q0 -33 13.5 -58.5t38 -40.5
t56.5 -15q33 0 64 15t54.5 40.5t32.5 58.5q-9 33 -32.5 59t-54.5 41t-64 15q-32 0 -56.5 -15t-38 -41t-13.5 -59zM694 627h-183q-7 29 -28.5 44.5t-53.5 15.5t-53.5 -15.5t-28.5 -44.5h-183q17 98 84.5 154t180.5 56t181 -56t84 -154z" />
    <glyph glyph-name="uni0204" unicode="&#x204;" horiz-adv-x="812" 
d="M729 464v-178h-565v178h565zM341 375l-46 -279l-98 108h569v-204h-726l55 375l-55 375h721v-204h-564l98 108zM538 982l125 -180h-217l-147 180h239zM246 982l125 -180h-217l-147 180h239z" />
    <glyph glyph-name="uni0205" unicode="&#x205;" horiz-adv-x="750" 
d="M399 -18q-107 0 -191.5 38.5t-133.5 108t-49 161.5q0 91 47.5 159t129.5 106t184 38q107 0 182 -45.5t115 -129t40 -197.5h-490v139h342l-68 -47q-4 35 -18.5 59t-37.5 36.5t-55 12.5q-37 0 -62.5 -14.5t-39 -39.5t-13.5 -56q0 -48 21.5 -80.5t65.5 -49.5t111 -17
q62 0 121 14t109 40v-154q-64 -40 -139.5 -61t-170.5 -21zM515 827l115 -200h-207l-127 200h219zM233 827l115 -200h-207l-127 200h219z" />
    <glyph glyph-name="uni0206" unicode="&#x206;" horiz-adv-x="812" 
d="M729 464v-178h-565v178h565zM341 375l-46 -279l-98 108h569v-204h-726l55 375l-55 375h721v-204h-564l98 108zM689 796h-190q-16 22 -38 33t-52 11t-52 -11t-38 -33h-190q29 100 103 147.5t177 47.5q104 0 178 -47.5t102 -147.5z" />
    <glyph glyph-name="uni0207" unicode="&#x207;" horiz-adv-x="750" 
d="M399 -18q-107 0 -191.5 38.5t-133.5 108t-49 161.5q0 91 47.5 159t129.5 106t184 38q107 0 182 -45.5t115 -129t40 -197.5h-490v139h342l-68 -47q-4 35 -18.5 59t-37.5 36.5t-55 12.5q-37 0 -62.5 -14.5t-39 -39.5t-13.5 -56q0 -48 21.5 -80.5t65.5 -49.5t111 -17
q62 0 121 14t109 40v-154q-64 -40 -139.5 -61t-170.5 -21zM651 627h-183q-7 29 -28.5 44.5t-53.5 15.5t-53.5 -15.5t-28.5 -44.5h-183q17 98 84.5 154t180.5 56t181 -56t84 -154z" />
    <glyph glyph-name="uni0208" unicode="&#x208;" horiz-adv-x="378" 
d="M342 982l97 -180h-186l-109 180h198zM99 982l97 -180h-186l-109 180h198zM60 750h258v-750h-258v750z" />
    <glyph glyph-name="uni0209" unicode="&#x209;" horiz-adv-x="350" 
d="M298 827l97 -200h-156l-109 200h168zM85 827l97 -200h-156l-109 200h168zM48 587l127 -26l127 26v-587h-254v587z" />
    <glyph glyph-name="uni020A" unicode="&#x20a;" horiz-adv-x="378" 
d="M60 750h258v-750h-258v750zM469 796h-190q-16 22 -38 33t-52 11t-52 -11t-38 -33h-190q29 100 103 147.5t177 47.5q104 0 178 -47.5t102 -147.5z" />
    <glyph glyph-name="uni020B" unicode="&#x20b;" horiz-adv-x="350" 
d="M401 627h-164q-4 26 -21 42t-41 16t-41 -16t-21 -42h-164q8 95 68.5 152.5t157.5 57.5q98 0 158 -57.5t68 -152.5zM48 587l127 -26l127 26v-587h-254v587z" />
    <glyph glyph-name="uni020C" unicode="&#x20c;" horiz-adv-x="976" 
d="M488 -18q-137 0 -239.5 49t-159.5 137.5t-57 206.5t57 206.5t159.5 137.5t239.5 49t239.5 -49t159.5 -137.5t57 -206.5t-57 -206.5t-159.5 -137.5t-239.5 -49zM488 212q61 0 105 19.5t67.5 56t23.5 87.5t-23.5 87.5t-67.5 56t-105 19.5t-105 -19.5t-67.5 -56t-23.5 -87.5
t23.5 -87.5t67.5 -56t105 -19.5zM617 982l125 -180h-217l-147 180h239zM325 982l125 -180h-217l-147 180h239z" />
    <glyph glyph-name="uni020D" unicode="&#x20d;" horiz-adv-x="810" 
d="M405 -18q-114 0 -199.5 38t-133 107t-47.5 160q0 92 47.5 161t133 107t199.5 38t199.5 -38t133 -107t47.5 -161q0 -91 -47.5 -160t-133 -107t-199.5 -38zM405 167q40 0 67.5 14t42 41t14.5 65q0 39 -14.5 66t-42 41t-67.5 14q-39 0 -67 -14t-42.5 -41t-14.5 -66
q0 -38 14.5 -65t42.5 -41t67 -14zM534 827l115 -200h-207l-127 200h219zM252 827l115 -200h-207l-127 200h219z" />
    <glyph glyph-name="uni020E" unicode="&#x20e;" horiz-adv-x="976" 
d="M488 -18q-137 0 -239.5 49t-159.5 137.5t-57 206.5t57 206.5t159.5 137.5t239.5 49t239.5 -49t159.5 -137.5t57 -206.5t-57 -206.5t-159.5 -137.5t-239.5 -49zM488 212q61 0 105 19.5t67.5 56t23.5 87.5t-23.5 87.5t-67.5 56t-105 19.5t-105 -19.5t-67.5 -56t-23.5 -87.5
t23.5 -87.5t67.5 -56t105 -19.5zM768 796h-190q-16 22 -38 33t-52 11t-52 -11t-38 -33h-190q29 100 103 147.5t177 47.5q104 0 178 -47.5t102 -147.5z" />
    <glyph glyph-name="uni020F" unicode="&#x20f;" horiz-adv-x="810" 
d="M405 -18q-114 0 -199.5 38t-133 107t-47.5 160q0 92 47.5 161t133 107t199.5 38t199.5 -38t133 -107t47.5 -161q0 -91 -47.5 -160t-133 -107t-199.5 -38zM405 167q40 0 67.5 14t42 41t14.5 65q0 39 -14.5 66t-42 41t-67.5 14q-39 0 -67 -14t-42.5 -41t-14.5 -66
q0 -38 14.5 -65t42.5 -41t67 -14zM670 627h-183q-7 29 -28.5 44.5t-53.5 15.5t-53.5 -15.5t-28.5 -44.5h-183q17 98 84.5 154t180.5 56t181 -56t84 -154z" />
    <glyph glyph-name="uni0210" unicode="&#x210;" horiz-adv-x="876" 
d="M238 429h252q38 0 59 18t21 52t-21 52t-59 18h-288l116 116v-685h-258v750h470q90 0 157.5 -31.5t105 -87.5t37.5 -132q0 -74 -37.5 -130.5t-105 -87.5t-157.5 -31h-292v179zM326 351h285l249 -351h-295zM549 982l125 -180h-217l-147 180h239zM257 982l125 -180h-217
l-147 180h239z" />
    <glyph glyph-name="uni0211" unicode="&#x211;" horiz-adv-x="585" 
d="M21 575h260l34 -203v-372h-254v375zM569 587v-215q-34 6 -61 8.5t-48 2.5q-38 0 -71 -13.5t-53.5 -48.5t-20.5 -100l-45 56q10 62 25.5 118.5t41.5 101t66 70.5t100 26q15 0 31 -1.5t35 -4.5zM441 827l115 -200h-207l-127 200h219zM159 827l115 -200h-207l-127 200h219z
" />
    <glyph glyph-name="uni0212" unicode="&#x212;" horiz-adv-x="876" 
d="M238 429h252q38 0 59 18t21 52t-21 52t-59 18h-288l116 116v-685h-258v750h470q90 0 157.5 -31.5t105 -87.5t37.5 -132q0 -74 -37.5 -130.5t-105 -87.5t-157.5 -31h-292v179zM326 351h285l249 -351h-295zM700 796h-190q-16 22 -38 33t-52 11t-52 -11t-38 -33h-190
q29 100 103 147.5t177 47.5q104 0 178 -47.5t102 -147.5z" />
    <glyph glyph-name="uni0213" unicode="&#x213;" horiz-adv-x="585" 
d="M21 575h260l34 -203v-372h-254v375zM569 587v-215q-34 6 -61 8.5t-48 2.5q-38 0 -71 -13.5t-53.5 -48.5t-20.5 -100l-45 56q10 62 25.5 118.5t41.5 101t66 70.5t100 26q15 0 31 -1.5t35 -4.5zM577 627h-183q-7 29 -28.5 44.5t-53.5 15.5t-53.5 -15.5t-28.5 -44.5h-183
q17 98 84.5 154t180.5 56t181 -56t84 -154z" />
    <glyph glyph-name="uni0214" unicode="&#x214;" horiz-adv-x="889" 
d="M308 344q0 -41 14.5 -70.5t44.5 -45.5t77 -16q48 0 78 15.5t44 45.5t14 71v406h258v-420q0 -105 -49 -183t-137.5 -121.5t-207.5 -43.5q-118 0 -206.5 43.5t-138 121.5t-49.5 183v420h258v-406zM573 982l125 -180h-217l-147 180h239zM281 982l125 -180h-217l-147 180h239
z" />
    <glyph glyph-name="uni0215" unicode="&#x215;" horiz-adv-x="807" 
d="M299 -17q-81 0 -139 33.5t-88.5 94t-30.5 140.5v324h254v-288q0 -47 24.5 -73t69.5 -26q35 0 57.5 12.5t34 38t11.5 62.5l75 -38q-13 -93 -52.5 -155.5t-95 -93.5t-120.5 -31zM532 0l-40 245v330h254v-369l40 -206h-254zM533 827l115 -200h-207l-127 200h219zM251 827
l115 -200h-207l-127 200h219z" />
    <glyph glyph-name="uni0216" unicode="&#x216;" horiz-adv-x="889" 
d="M308 344q0 -41 14.5 -70.5t44.5 -45.5t77 -16q48 0 78 15.5t44 45.5t14 71v406h258v-420q0 -105 -49 -183t-137.5 -121.5t-207.5 -43.5q-118 0 -206.5 43.5t-138 121.5t-49.5 183v420h258v-406zM724 796h-190q-16 22 -38 33t-52 11t-52 -11t-38 -33h-190
q29 100 103 147.5t177 47.5q104 0 178 -47.5t102 -147.5z" />
    <glyph glyph-name="uni0217" unicode="&#x217;" horiz-adv-x="807" 
d="M299 -17q-81 0 -139 33.5t-88.5 94t-30.5 140.5v324h254v-288q0 -47 24.5 -73t69.5 -26q35 0 57.5 12.5t34 38t11.5 62.5l75 -38q-13 -93 -52.5 -155.5t-95 -93.5t-120.5 -31zM532 0l-40 245v330h254v-369l40 -206h-254zM669 627h-183q-7 29 -28.5 44.5t-53.5 15.5
t-53.5 -15.5t-28.5 -44.5h-183q17 98 84.5 154t180.5 56t181 -56t84 -154z" />
    <glyph glyph-name="uni0218" unicode="&#x218;" horiz-adv-x="870" 
d="M35 247h262q4 -22 23 -37.5t52 -24t79 -8.5q60 0 93.5 12t33.5 39q0 18 -19 30.5t-78 16.5l-124 8q-169 11 -244 72t-75 161q0 84 48 140t134.5 84t202.5 28q113 0 200.5 -31.5t139 -88.5t56.5 -133h-262q-3 18 -19.5 31t-46.5 20t-73 7q-55 0 -86.5 -11t-31.5 -36
q0 -17 18.5 -29t71.5 -16l140 -9q110 -7 178 -32.5t99.5 -70.5t31.5 -111q0 -83 -49 -145t-137.5 -96.5t-206.5 -34.5q-122 0 -214 33t-143.5 93t-53.5 139zM313 -339l112 171l10 -69q-59 0 -94.5 26t-35.5 72t35.5 71.5t94.5 25.5t94 -25.5t35 -72.5q0 -31 -17.5 -58
t-53.5 -68l-64 -73h-116z" />
    <glyph glyph-name="uni0219" unicode="&#x219;" horiz-adv-x="786" 
d="M760 196q0 -72 -45 -119.5t-125.5 -71t-188.5 -23.5q-111 0 -195.5 26.5t-133 74t-51.5 110.5h258q7 -17 24 -28.5t44.5 -17t67.5 -5.5q48 0 73 7t25 20q0 15 -21 21.5t-68 9.5l-94 6q-109 7 -173.5 29.5t-92.5 61.5t-28 93q0 69 43.5 114t121.5 67t182 22
q102 0 181 -25.5t127 -70.5t56 -106h-258q-5 16 -20 27.5t-39 18t-58 6.5q-46 0 -67 -7.5t-21 -20.5q0 -15 13 -21t51 -8l126 -8q108 -6 170.5 -28.5t89 -60.5t26.5 -93zM270 -339l112 171l10 -69q-59 0 -94.5 26t-35.5 72t35.5 71.5t94.5 25.5t94 -25.5t35 -72.5
q0 -31 -17.5 -58t-53.5 -68l-64 -73h-116z" />
    <glyph glyph-name="uni021A" unicode="&#x21a;" horiz-adv-x="840" 
d="M291 639h258v-639h-258v639zM21 750h798v-230h-798v230zM298 -339l112 171l10 -69q-59 0 -94.5 26t-35.5 72t35.5 71.5t94.5 25.5t94 -25.5t35 -72.5q0 -31 -17.5 -58t-53.5 -68l-64 -73h-116z" />
    <glyph glyph-name="uni021B" unicode="&#x21b;" horiz-adv-x="635" 
d="M6 390v109l113 57l111 176h143v-157h225v-185h-225v-118q0 -55 21 -77.5t86 -22.5q40 0 71.5 5.5t56.5 13.5v-184q-34 -10 -83.5 -17.5t-103.5 -7.5q-102 0 -169 30.5t-100 88.5t-33 138v151h-113zM227 -339l112 171l10 -69q-59 0 -94.5 26t-35.5 72t35.5 71.5t94.5 25.5
t94 -25.5t35 -72.5q0 -31 -17.5 -58t-53.5 -68l-64 -73h-116z" />
    <glyph glyph-name="uni021C" unicode="&#x21c;" horiz-adv-x="843" 
d="M64 750h704v-183l-337 -197l-23 66h76q122 0 194 -25.5t103 -71t31 -106.5q0 -72 -43.5 -129t-131 -89.5t-219.5 -32.5q-122 0 -213 33t-141.5 94t-53.5 144h256q6 -37 41.5 -57t110.5 -20q69 0 100.5 19.5t31.5 51.5q0 21 -11 36t-37 23t-72 8h-135v158l356 204l19 -118
h-606v192z" />
    <glyph glyph-name="uni021D" unicode="&#x21d;" horiz-adv-x="781" 
d="M60 575h647v-174l-339 -191l-20 72h101q111 0 179 -31t99 -81.5t31 -110.5q0 -71 -43 -126t-127.5 -85.5t-209.5 -30.5q-118 0 -201.5 35t-127.5 96t-47 137h239q6 -37 39 -63t98 -26q59 0 91.5 22t32.5 56q0 20 -12.5 36.5t-40 26.5t-72.5 10h-135v151l355 204l18 -105
h-555v178z" />
    <glyph glyph-name="uni021E" unicode="&#x21e;" horiz-adv-x="956" 
d="M60 750h258v-750h-258v750zM638 750h258v-750h-258v750zM206 497h533v-228h-533v228zM609 801h-262l-155 180h200l146 -104h-120l146 104h200z" />
    <glyph glyph-name="uni021F" unicode="&#x21f;" horiz-adv-x="807" 
d="M48 770h254v-770h-254v770zM501 593q84 0 143 -33.5t90.5 -94t31.5 -141.5v-324h-254v288q0 48 -26.5 74t-74.5 26q-34 0 -58.5 -13.5t-37.5 -39t-13 -61.5l-75 38q14 94 54 156.5t97 93.5t123 31zM552 821h-262l-155 180h200l146 -104h-120l146 104h200z" />
    <glyph glyph-name="uni0220" unicode="&#x220;" horiz-adv-x="915" 
d="M60 750h258v-750h-258v750zM562 768q93 0 160.5 -37t103.5 -104.5t36 -157.5v-634h-258v573q0 62 -36 96t-103 34q-47 0 -80 -17t-50 -49t-17 -78l-77 38q24 127 69 200.5t109 104.5t143 31z" />
    <glyph glyph-name="uni0226" unicode="&#x226;" horiz-adv-x="996" 
d="M238 126v205h511v-205h-511zM670 750l329 -750h-275l-259 636h66l-259 -636h-275l329 750h344zM498 792q-64 0 -103 31t-39 85t39 85t103 31q65 0 103.5 -31t38.5 -85t-38.5 -85t-103.5 -31z" />
    <glyph glyph-name="uni0227" unicode="&#x227;" horiz-adv-x="852" 
d="M555 0l-29 203l29 84l-29 83l29 205h264l-40 -287l40 -288h-264zM608 287q-10 -92 -49.5 -160.5t-103 -106.5t-145.5 -38q-84 0 -147.5 38t-99 107t-35.5 160q0 92 35.5 161t99 107t147.5 38q82 0 145.5 -37.5t103.5 -106t49 -162.5zM284 287q0 -33 13.5 -58.5t38 -40.5
t56.5 -15q33 0 64 15t54.5 40.5t32.5 58.5q-9 33 -32.5 59t-54.5 41t-64 15q-32 0 -56.5 -15t-38 -41t-13.5 -59zM429 617q-64 0 -103 31t-39 85t39 85t103 31q65 0 103.5 -31t38.5 -85t-38.5 -85t-103.5 -31z" />
    <glyph glyph-name="uni0228" unicode="&#x228;" horiz-adv-x="812" 
d="M729 464v-178h-565v178h565zM341 375l-46 -279l-98 108h569v-204h-726l55 375l-55 375h721v-204h-564l98 108zM372 25h115l-51 -93l-63 4q28 12 58.5 19.5t63.5 7.5q77 0 117 -27.5t40 -77.5q0 -52 -53 -86.5t-158 -34.5q-91 0 -150 31.5t-75 88.5h157q5 -9 21 -16t47 -7
t46.5 8.5t15.5 21.5q0 12 -12.5 20.5t-39.5 8.5q-13 0 -27.5 -1.5t-26.5 -6.5h-117z" />
    <glyph glyph-name="uni0229" unicode="&#x229;" horiz-adv-x="750" 
d="M399 -18q-107 0 -191.5 38.5t-133.5 108t-49 161.5q0 91 47.5 159t129.5 106t184 38q107 0 182 -45.5t115 -129t40 -197.5h-490v139h342l-68 -47q-4 35 -18.5 59t-37.5 36.5t-55 12.5q-37 0 -62.5 -14.5t-39 -39.5t-13.5 -56q0 -48 21.5 -80.5t65.5 -49.5t111 -17
q62 0 121 14t109 40v-154q-64 -40 -139.5 -61t-170.5 -21zM341 22h116l-60 -91l-57 4q25 11 54 18t64 7q71 0 108.5 -26.5t37.5 -73.5q0 -50 -49.5 -83.5t-147.5 -33.5q-85 0 -140.5 30.5t-71.5 84.5h140q6 -10 23 -17.5t49 -7.5t48 9.5t16 22.5t-12.5 22t-41.5 9
q-12 0 -24.5 -2t-22.5 -7h-117z" />
    <glyph glyph-name="uni022A" unicode="&#x22a;" horiz-adv-x="976" 
d="M488 -18q-137 0 -239.5 49t-159.5 137.5t-57 206.5t57 206.5t159.5 137.5t239.5 49t239.5 -49t159.5 -137.5t57 -206.5t-57 -206.5t-159.5 -137.5t-239.5 -49zM488 212q61 0 105 19.5t67.5 56t23.5 87.5t-23.5 87.5t-67.5 56t-105 19.5t-105 -19.5t-67.5 -56t-23.5 -87.5
t23.5 -87.5t67.5 -56t105 -19.5zM328 792q-60 0 -95.5 29t-35.5 82q0 50 35.5 78.5t95.5 28.5t95.5 -28.5t35.5 -78.5q0 -53 -35.5 -82t-95.5 -29zM648 792q-60 0 -95.5 29t-35.5 82q0 50 35.5 78.5t95.5 28.5t95.5 -28.5t35.5 -78.5q0 -53 -35.5 -82t-95.5 -29zM227 1049
v147h524v-147h-524z" />
    <glyph glyph-name="uni022B" unicode="&#x22b;" horiz-adv-x="810" 
d="M405 -18q-114 0 -199.5 38t-133 107t-47.5 160q0 92 47.5 161t133 107t199.5 38t199.5 -38t133 -107t47.5 -161q0 -91 -47.5 -160t-133 -107t-199.5 -38zM405 167q40 0 67.5 14t42 41t14.5 65q0 39 -14.5 66t-42 41t-67.5 14q-39 0 -67 -14t-42.5 -41t-14.5 -65
q0 -39 14.5 -66t42.5 -41t67 -14zM248 617q-60 0 -95.5 29t-35.5 82q0 50 35.5 78.5t95.5 28.5t95.5 -28.5t35.5 -78.5q0 -53 -35.5 -82t-95.5 -29zM562 617q-60 0 -95.5 29t-35.5 82q0 50 35.5 78.5t95.5 28.5t95.5 -28.5t35.5 -78.5q0 -53 -35.5 -82t-95.5 -29zM142 874
v147h524v-147h-524z" />
    <glyph glyph-name="uni022C" unicode="&#x22c;" horiz-adv-x="976" 
d="M488 -18q-137 0 -239.5 49t-159.5 137.5t-57 206.5t57 206.5t159.5 137.5t239.5 49t239.5 -49t159.5 -137.5t57 -206.5t-57 -206.5t-159.5 -137.5t-239.5 -49zM488 212q61 0 105 19.5t67.5 56t23.5 87.5t-23.5 87.5t-67.5 56t-105 19.5t-105 -19.5t-67.5 -56t-23.5 -87.5
t23.5 -87.5t67.5 -56t105 -19.5zM192 806q13 89 59.5 139.5t139.5 50.5q28 0 53.5 -6.5t48 -15t42.5 -15t37 -6.5q20 0 33.5 9t17.5 27h160q-13 -88 -59.5 -139t-139.5 -51q-28 0 -53.5 6.5t-48 15t-42.5 15t-37 6.5q-20 0 -33.5 -9t-17.5 -27h-160zM226 1042v147h524v-147
h-524z" />
    <glyph glyph-name="uni022D" unicode="&#x22d;" horiz-adv-x="810" 
d="M405 -18q-114 0 -199.5 38t-133 107t-47.5 160q0 92 47.5 161t133 107t199.5 38t199.5 -38t133 -107t47.5 -161q0 -91 -47.5 -160t-133 -107t-199.5 -38zM405 167q40 0 67.5 14t42 41t14.5 65q0 39 -14.5 66t-42 41t-67.5 14q-39 0 -67 -14t-42.5 -41t-14.5 -65
q0 -39 14.5 -66t42.5 -41t67 -14zM139 627q5 95 43 150t116 55q28 0 54 -7t48.5 -16.5t42.5 -17t36 -7.5q20 0 33.5 12t17.5 34h140q-4 -95 -42.5 -150t-116.5 -55q-28 0 -54 7.5t-48.5 17t-42.5 16.5t-36 7q-20 0 -33.5 -12t-17.5 -34h-140zM143 892v147h524v-147h-524z
" />
    <glyph glyph-name="uni022E" unicode="&#x22e;" horiz-adv-x="976" 
d="M488 -18q-137 0 -239.5 49t-159.5 137.5t-57 206.5t57 206.5t159.5 137.5t239.5 49t239.5 -49t159.5 -137.5t57 -206.5t-57 -206.5t-159.5 -137.5t-239.5 -49zM488 212q61 0 105 19.5t67.5 56t23.5 87.5t-23.5 87.5t-67.5 56t-105 19.5t-105 -19.5t-67.5 -56t-23.5 -87.5
t23.5 -87.5t67.5 -56t105 -19.5zM488 792q-64 0 -103 31t-39 85t39 85t103 31q65 0 103.5 -31t38.5 -85t-38.5 -85t-103.5 -31z" />
    <glyph glyph-name="uni022F" unicode="&#x22f;" horiz-adv-x="810" 
d="M405 -18q-114 0 -199.5 38t-133 107t-47.5 160q0 92 47.5 161t133 107t199.5 38t199.5 -38t133 -107t47.5 -161q0 -91 -47.5 -160t-133 -107t-199.5 -38zM405 167q40 0 67.5 14t42 41t14.5 65q0 39 -14.5 66t-42 41t-67.5 14q-39 0 -67 -14t-42.5 -41t-14.5 -65
q0 -39 14.5 -66t42.5 -41t67 -14zM405 617q-64 0 -103 31t-39 85t39 85t103 31q65 0 103.5 -31t38.5 -85t-38.5 -85t-103.5 -31z" />
    <glyph glyph-name="uni0230" unicode="&#x230;" horiz-adv-x="976" 
d="M488 -18q-137 0 -239.5 49t-159.5 137.5t-57 206.5t57 206.5t159.5 137.5t239.5 49t239.5 -49t159.5 -137.5t57 -206.5t-57 -206.5t-159.5 -137.5t-239.5 -49zM488 212q61 0 105 19.5t67.5 56t23.5 87.5t-23.5 87.5t-67.5 56t-105 19.5t-105 -19.5t-67.5 -56t-23.5 -87.5
t23.5 -87.5t67.5 -56t105 -19.5zM488 792q-64 0 -103 31t-39 85t39 85t103 31q65 0 103.5 -31t38.5 -85t-38.5 -85t-103.5 -31zM226 1049v147h524v-147h-524z" />
    <glyph glyph-name="uni0231" unicode="&#x231;" horiz-adv-x="810" 
d="M405 -18q-114 0 -199.5 38t-133 107t-47.5 160q0 92 47.5 161t133 107t199.5 38t199.5 -38t133 -107t47.5 -161q0 -91 -47.5 -160t-133 -107t-199.5 -38zM405 167q40 0 67.5 14t42 41t14.5 65q0 39 -14.5 66t-42 41t-67.5 14q-39 0 -67 -14t-42.5 -41t-14.5 -65
q0 -39 14.5 -66t42.5 -41t67 -14zM405 617q-64 0 -103 31t-39 85t39 85t103 31q65 0 103.5 -31t38.5 -85t-38.5 -85t-103.5 -31zM143 874v147h524v-147h-524z" />
    <glyph glyph-name="uni0232" unicode="&#x232;" horiz-adv-x="957" 
d="M350 0v370h258v-370h-258zM0 750h283l249 -321h-107l248 321h283l-394 -506l-167 -3zM216 817v147h524v-147h-524z" />
    <glyph glyph-name="uni0233" unicode="&#x233;" horiz-adv-x="818" 
d="M270 -183q-72 0 -126.5 17.5t-108.5 57.5v170q53 -34 98.5 -48.5t98.5 -14.5q42 0 73.5 17.5t51.5 67.5l195 491h270l-262 -567q-33 -72 -80.5 -114t-101.5 -59.5t-108 -17.5zM238 77l-231 498h280l193 -498h-242zM156 642v147h524v-147h-524z" />
    <glyph glyph-name="uni0237" unicode="&#x237;" horiz-adv-x="350" 
d="M48 587l127 -26l127 26v-752h-254v752z" />
    <glyph glyph-name="uni0238" unicode="&#x238;" horiz-adv-x="1316" 
d="M604 287q-10 -92 -49.5 -160.5t-102 -106.5t-144.5 -38q-84 0 -147 38t-98 107t-35 160q0 92 35 161t98 107t147 38q81 0 144.5 -37.5t103 -106t48.5 -162.5zM284 287q0 -33 13.5 -58.5t37.5 -40.5t55 -15q33 0 64 15t54.5 40.5t32.5 58.5q-9 33 -32.5 59t-54.5 41
t-64 15q-31 0 -55 -15t-37.5 -41t-13.5 -59zM533 770h250v-342l-29 -63v-170l29 -55v-140h-250v151l29 92v142l-29 42v343zM712 287q10 94 49 162.5t102.5 106t144.5 37.5q84 0 147 -38t98 -107t35 -161q0 -91 -35 -160t-98 -107t-147 -38q-81 0 -144 38t-102 106.5
t-50 160.5zM1032 287q0 33 -13.5 59t-37 41t-55.5 15q-33 0 -64 -15t-54 -41t-33 -59q10 -33 33 -58.5t54 -40.5t64 -15q32 0 55.5 15t37 40.5t13.5 58.5z" />
    <glyph glyph-name="uni0239" unicode="&#x239;" horiz-adv-x="1316" 
d="M604 287q-10 -92 -49.5 -160.5t-102 -106.5t-144.5 -38q-84 0 -147 38t-98 107t-35 160q0 92 35 161t98 107t147 38q81 0 144.5 -37.5t103 -106t48.5 -162.5zM284 287q0 -33 13.5 -58.5t37.5 -40.5t55 -15q33 0 64 15t54.5 40.5t32.5 58.5q-9 33 -32.5 59t-54.5 41
t-64 15q-31 0 -55 -15t-37.5 -41t-13.5 -59zM533 575h250v-147l-29 -63v-170l29 -55v-305h-250v316l29 92v142l-29 42v148zM712 287q10 94 49 162.5t102.5 106t144.5 37.5q84 0 147 -38t98 -107t35 -161q0 -91 -35 -160t-98 -107t-147 -38q-81 0 -144 38t-102 106.5
t-50 160.5zM1032 287q0 33 -13.5 59t-37 41t-55.5 15q-33 0 -64 -15t-54 -41t-33 -59q10 -33 33 -58.5t54 -40.5t64 -15q32 0 55.5 15t37 40.5t13.5 58.5z" />
    <glyph glyph-name="uni023A" unicode="&#x23a;" horiz-adv-x="996" 
d="M665 872h135l-385 -994h-135zM238 126v205h511v-205h-511zM670 750l329 -750h-275l-259 636h66l-259 -636h-275l329 750h344z" />
    <glyph glyph-name="uni023B" unicode="&#x23b;" horiz-adv-x="950" 
d="M558 872h202l-385 -994h-202zM923 325q-12 -103 -70.5 -180t-154.5 -120t-220 -43q-134 0 -234 49t-155.5 137.5t-55.5 206.5t55.5 206.5t155.5 137.5t234 49q124 0 220 -43t154.5 -120t70.5 -180h-259q-9 39 -33 66.5t-62.5 42t-90.5 14.5q-58 0 -99.5 -20.5
t-63.5 -59.5t-22 -93t22 -92.5t63.5 -59.5t99.5 -21q52 0 90.5 13.5t62.5 41t33 68.5h259z" />
    <glyph glyph-name="uni023C" unicode="&#x23c;" horiz-adv-x="787" 
d="M423 695h153l-212 -815h-153zM766 253q-7 -81 -57 -142t-130.5 -95t-181.5 -34q-110 0 -194 38.5t-131 107.5t-47 159q0 91 47 159.5t131 107.5t194 39q101 0 181.5 -34t130.5 -94.5t57 -142.5h-251q-9 43 -40.5 64.5t-77.5 21.5q-35 0 -61.5 -13.5t-40.5 -40.5t-14 -67
t14 -66.5t40.5 -40t61.5 -13.5q46 0 77.5 23.5t40.5 62.5h251z" />
    <glyph glyph-name="uni023D" unicode="&#x23d;" horiz-adv-x="825" 
d="M24 515h552v-170h-552v170zM362 750v-636l-116 116h558v-230h-700v750h258z" />
    <glyph glyph-name="uni023E" unicode="&#x23e;" horiz-adv-x="862" 
d="M744 872h206l-606 -994h-206zM291 639h258v-639h-258v639zM21 750h798v-230h-798v230z" />
    <glyph glyph-name="uni0241" unicode="&#x241;" horiz-adv-x="790" 
d="M410 768q113 0 194 -31.5t125 -88t44 -132.5q0 -45 -12 -81t-36.5 -65t-61.5 -56l-63 -45q-37 -27 -55 -50.5t-23 -51.5t-5 -70v-97h-258v146q0 59 12.5 101t38.5 75t68 63l69 50q26 19 40.5 30.5t20 22t5.5 24.5q0 25 -26.5 43.5t-88.5 18.5q-65 0 -98.5 -22t-39.5 -62
h-256q4 75 50.5 138.5t136 101.5t219.5 38z" />
    <glyph glyph-name="uni0242" unicode="&#x242;" horiz-adv-x="738" 
d="M227 53q0 56 19 97.5t65 72.5l92 61q20 14 32.5 23.5t18 20t5.5 24.5q0 23 -20.5 39.5t-70.5 16.5q-58 0 -86.5 -22.5t-35.5 -65.5h-249q8 126 103 199.5t271 73.5q101 0 178.5 -28t121.5 -80.5t44 -126.5q0 -45 -11.5 -78t-34 -58.5t-56.5 -49.5l-85 -60
q-26 -18 -36.5 -37.5t-10.5 -50.5v-24h-254v53z" />
    <glyph glyph-name="uni0243" unicode="&#x243;" horiz-adv-x="945" 
d="M18 299h496v-126h-496v126zM642 364l20 46q85 -3 142 -27t85.5 -66.5t28.5 -101.5q0 -61 -27.5 -110t-83.5 -77t-140 -28h-589l57 385l-57 365h568q104 0 163 -48.5t59 -134.5q0 -49 -22 -92t-71.5 -72.5t-132.5 -38.5zM330 56l-98 115h353q33 0 52 17.5t19 47.5
q0 27 -18.5 46t-54.5 19h-296v168h258q26 0 43.5 16t17.5 41q0 23 -16 38t-45 15h-312l97 115l51 -309z" />
    <glyph glyph-name="uni0244" unicode="&#x244;" horiz-adv-x="1006" 
d="M29 525h948v-170h-948v170zM367 344q0 -41 14.5 -70.5t44.5 -45.5t77 -16q48 0 78 15.5t44 45.5t14 71v406h258v-420q0 -105 -49 -183t-137.5 -121.5t-207.5 -43.5q-118 0 -206.5 43.5t-138 121.5t-49.5 183v420h258v-406z" />
    <glyph glyph-name="uni0245" unicode="&#x245;" horiz-adv-x="948" 
d="M-3 0l330 750h294l330 -750h-260l-267 632h106l-267 -632h-266z" />
    <glyph glyph-name="uni0246" unicode="&#x246;" horiz-adv-x="812" 
d="M534 872h200l-263 -994h-200zM729 464v-178h-565v178h565zM341 375l-46 -279l-98 108h569v-204h-726l55 375l-55 375h721v-204h-564l98 108z" />
    <glyph glyph-name="uni0247" unicode="&#x247;" horiz-adv-x="750" 
d="M405 695h153l-212 -815h-153zM399 -18q-107 0 -191.5 38.5t-133.5 108t-49 161.5q0 91 47.5 159t129.5 106t184 38q107 0 182 -45.5t115 -129t40 -197.5h-490v139h342l-68 -47q-4 35 -18.5 59t-37.5 36.5t-55 12.5q-37 0 -62.5 -14.5t-39 -39.5t-13.5 -56
q0 -48 21.5 -80.5t65.5 -49.5t111 -17q62 0 121 14t109 40v-154q-64 -40 -139.5 -61t-170.5 -21z" />
    <glyph glyph-name="uni0248" unicode="&#x248;" horiz-adv-x="881" 
d="M393 529h460v-170h-460v170zM13 376h252v-20q0 -77 28 -115.5t96 -38.5q66 0 96 35t30 97v416h258v-430q0 -101 -48 -177.5t-134 -118.5t-202 -42q-113 0 -197.5 44t-130.5 123.5t-46 184.5z" />
    <glyph glyph-name="uni0249" unicode="&#x249;" horiz-adv-x="424" 
d="M20 428h384v-146h-384v146zM85 587l127 -26l127 26v-752h-254v752zM212 617q-64 0 -103 31t-39 85t39 85t103 31q65 0 103.5 -31t38.5 -85t-38.5 -85t-103.5 -31z" />
    <glyph glyph-name="uni024A" unicode="&#x24a;" horiz-adv-x="987" 
d="M1005 10q24 0 45.5 4t38.5 9v-177q-32 -15 -72.5 -22t-76.5 -7q-139 0 -202 69.5t-63 203.5v176l37 109l-37 106v269h252v-645q0 -45 16 -70t62 -25zM762 375q-12 -118 -60.5 -206.5t-125.5 -137.5t-177 -49q-109 0 -191 49t-127.5 137.5t-45.5 206.5t45.5 206.5
t127.5 137.5t191 49q100 0 177.5 -48t126 -136t59.5 -209zM295 375q0 -47 22 -84.5t61.5 -59t90.5 -21.5q46 0 89 21.5t75.5 59t45.5 84.5q-13 48 -45.5 85t-75.5 58.5t-89 21.5q-51 0 -90.5 -21.5t-61.5 -58.5t-22 -85z" />
    <glyph glyph-name="uni024B" unicode="&#x24b;" horiz-adv-x="835" 
d="M608 287q-10 -92 -49.5 -160.5t-103 -106.5t-145.5 -38q-84 0 -147.5 38t-99 107t-35.5 160q0 92 35.5 161t99 107t147.5 38q82 0 145.5 -37.5t103.5 -106t49 -162.5zM284 287q0 -33 13.5 -58.5t38 -40.5t56.5 -15q33 0 64 15t54.5 40.5t32.5 58.5q-9 33 -32.5 59
t-54.5 41t-64 15q-32 0 -56.5 -15t-38 -41t-13.5 -59zM787 105q0 -45 16 -70t62 -25q24 0 45.5 4t38.5 9v-187q-32 -10 -72.5 -14.5t-76.5 -4.5q-140 0 -203.5 69.5t-63.5 203.5v70l10 55v190l-10 28v142h254v-470z" />
    <glyph glyph-name="uni024C" unicode="&#x24c;" horiz-adv-x="920" 
d="M24 428h315v-170h-315v170zM282 429h252q38 0 59 18t21 52t-21 52t-59 18h-288l116 116v-685h-258v750h470q90 0 157.5 -31.5t105 -87.5t37.5 -132q0 -74 -37.5 -130.5t-105 -87.5t-157.5 -31h-292v179zM370 351h285l249 -351h-295z" />
    <glyph glyph-name="uni024D" unicode="&#x24d;" horiz-adv-x="605" 
d="M16 273h434v-146h-434v146zM41 575h260l34 -203v-372h-254v375zM589 587v-215q-34 6 -61 8.5t-48 2.5q-38 0 -71 -13.5t-53.5 -48.5t-20.5 -100l-45 56q10 62 25.5 118.5t41.5 101t66 70.5t100 26q15 0 31 -1.5t35 -4.5z" />
    <glyph glyph-name="uni024E" unicode="&#x24e;" horiz-adv-x="997" 
d="M14 704h969v-170h-969v170zM370 0v370h258v-370h-258zM20 750h283l249 -321h-107l248 321h283l-394 -506l-167 -3z" />
    <glyph glyph-name="uni024F" unicode="&#x24f;" horiz-adv-x="849" 
d="M16 467h825v-136h-825v136zM284 -183q-72 0 -126.5 17.5t-108.5 57.5v170q53 -34 98.5 -48.5t98.5 -14.5q42 0 73.5 17.5t51.5 67.5l195 491h270l-262 -567q-33 -72 -80.5 -114t-101.5 -59.5t-108 -17.5zM252 77l-231 498h280l193 -498h-242z" />
    <glyph glyph-name="uni0250" unicode="&#x250;" horiz-adv-x="765" 
d="M286 262q0 -46 37.5 -69t125.5 -23q63 0 126.5 14t116.5 36v-179q-75 -31 -150 -45t-157 -14q-111 0 -188 31t-116.5 89.5t-39.5 139.5v333h238v-81v-16v-148l7 -26v-42zM483 218q-70 0 -123 19.5t-88.5 49t-53.5 61t-18 55.5q0 20 17.5 51.5t52.5 63.5t88 53.5t125 21.5
q75 0 133.5 -21.5t91.5 -63t33 -102.5q0 -60 -33.5 -102t-91.5 -64t-133 -22zM403 363q37 0 64 10.5t27 32.5q0 23 -27.5 33t-63.5 10q-43 0 -74 -12t-50 -31q19 -18 49.5 -30.5t74.5 -12.5z" />
    <glyph glyph-name="uni0251" unicode="&#x251;" horiz-adv-x="852" 
d="M555 0l-29 203l29 84l-29 83l29 205h264l-40 -287l40 -288h-264zM608 287q-10 -92 -49.5 -160.5t-103 -106.5t-145.5 -38q-84 0 -147.5 38t-99 107t-35.5 160q0 92 35.5 161t99 107t147.5 38q82 0 145.5 -37.5t103.5 -106t49 -162.5zM284 287q0 -33 13.5 -58.5t38 -40.5
t56.5 -15q33 0 64 15t54.5 40.5t32.5 58.5q-9 33 -32.5 59t-54.5 41t-64 15q-32 0 -56.5 -15t-38 -41t-13.5 -59z" />
    <glyph glyph-name="uni0252" unicode="&#x252;" horiz-adv-x="851" 
d="M297 0h-264l40 288l-40 287h264l29 -205l-29 -83l29 -84zM244 287q10 94 49.5 162.5t103.5 106t145 37.5q85 0 148 -38t98.5 -107t35.5 -161q0 -91 -35.5 -160t-98.5 -107t-148 -38q-82 0 -145.5 38t-102.5 106.5t-50 160.5zM568 287q0 33 -13.5 59t-38 41t-56.5 15
q-33 0 -64 -15t-54 -41t-33 -59q10 -33 33 -58.5t54 -40.5t64 -15q32 0 56.5 15t38 40.5t13.5 58.5z" />
    <glyph glyph-name="uni0253" unicode="&#x253;" horiz-adv-x="835" 
d="M48 511q0 146 76.5 211.5t237.5 65.5q49 0 93.5 -6.5t81.5 -15.5v-172q-25 8 -57.5 13.5t-67.5 5.5q-59 0 -84.5 -26.5t-25.5 -80.5v-97l-31 -63v-170l31 -55v-121h-254v511zM807 267q0 -85 -35.5 -149.5t-98.5 -100t-148 -35.5q-82 0 -145.5 35.5t-102.5 99.5t-50 150
q10 88 49.5 152t103.5 99t145 35q85 0 148 -35.5t98.5 -100t35.5 -150.5zM551 267q0 28 -13.5 49t-38 33.5t-56.5 12.5q-33 0 -64 -12.5t-54 -33.5t-33 -49q10 -27 33 -48t54 -33.5t64 -12.5q32 0 56.5 12.5t38 33.5t13.5 48z" />
    <glyph glyph-name="uni0254" unicode="&#x254;" horiz-adv-x="787" 
d="M21 322q8 81 57.5 142t130 95t181.5 34q111 0 194.5 -38.5t130.5 -107t47 -159.5q0 -90 -47 -159t-130.5 -108t-194.5 -39q-100 0 -181 34t-130.5 95t-57.5 142h251q9 -43 40.5 -64.5t77.5 -21.5q36 0 62 13.5t40 40.5t14 67t-14 66.5t-40 40t-62 13.5q-46 0 -77.5 -23.5
t-40.5 -62.5h-251z" />
    <glyph glyph-name="uni0256" unicode="&#x256;" horiz-adv-x="957" 
d="M583 770h264l-64 -462l27 -203q8 -54 25.5 -74.5t60.5 -20.5q24 0 45.5 4t38.5 9v-187q-32 -10 -72.5 -14.5t-76.5 -4.5q-96 0 -153 22t-83.5 63t-34.5 98l-29 214l39 71l-39 96zM608 287q-10 -92 -49.5 -160.5t-103 -106.5t-145.5 -38q-84 0 -147.5 38t-99 107
t-35.5 160q0 92 35.5 161t99 107t147.5 38q82 0 145.5 -37.5t103.5 -106t49 -162.5zM284 287q0 -33 13.5 -58.5t38 -40.5t56.5 -15q33 0 64 15t54.5 40.5t32.5 58.5q-9 33 -32.5 59t-54.5 41t-64 15q-32 0 -56.5 -15t-38 -41t-13.5 -59z" />
    <glyph glyph-name="uni0257" unicode="&#x257;" horiz-adv-x="835" 
d="M787 0h-254v120l31 55v170l-31 63v128q0 128 59.5 190t187.5 62q48 0 87.5 -8t59.5 -14v-168q-15 5 -35.5 10t-39.5 5q-34 0 -49.5 -17t-15.5 -52v-544zM608 287q-10 -92 -49.5 -160.5t-103 -106.5t-145.5 -38q-84 0 -147.5 38t-99 107t-35.5 160q0 92 35.5 161t99 107
t147.5 38q82 0 145.5 -37.5t103.5 -106t49 -162.5zM284 287q0 -33 13.5 -58.5t38 -40.5t56.5 -15q33 0 64 15t54.5 40.5t32.5 58.5q-9 33 -32.5 59t-54.5 41t-64 15q-32 0 -56.5 -15t-38 -41t-13.5 -59z" />
    <glyph glyph-name="uni0259" unicode="&#x259;" horiz-adv-x="749" 
d="M350 593q107 0 191.5 -38.5t133.5 -107.5t49 -162q0 -91 -47.5 -159t-129 -106t-184.5 -38q-106 0 -181.5 45t-115.5 128t-40 196h490v-147h-342l58 58q5 -38 20.5 -64.5t40.5 -40t60 -13.5q37 0 62.5 16t39 43t13.5 61q0 48 -21.5 81t-64.5 49.5t-109 16.5
q-61 0 -118.5 -10t-106.5 -21v144q62 30 141.5 49.5t160.5 19.5z" />
    <glyph glyph-name="uni025B" unicode="&#x25b;" horiz-adv-x="755" 
d="M41 424q0 74 81.5 121.5t256.5 47.5q110 0 186 -28t116.5 -76t43.5 -109h-241q-5 23 -28.5 39t-69.5 16q-49 0 -69 -13.5t-20 -32.5q0 -12 8.5 -20.5t26.5 -12.5t46 -4h117v-123h-116q-36 0 -57 -4.5t-30 -13t-9 -22.5q0 -20 23.5 -34.5t80.5 -14.5q59 0 84.5 16t29.5 40
h244q-3 -57 -42.5 -105.5t-119.5 -78.5t-205 -30q-126 0 -203 25.5t-112.5 66.5t-35.5 88q0 44 25.5 75.5t89.5 48.5t179 17v-20q-86 0 -141 12.5t-85.5 33t-42 45.5t-11.5 50z" />
    <glyph glyph-name="uni025F" unicode="&#x25f;" horiz-adv-x="424" 
d="M20 428h384v-146h-384v146zM85 587l127 -26l127 26v-752h-254v752z" />
    <glyph glyph-name="uni0260" unicode="&#x260;" horiz-adv-x="838" 
d="M309 71q-82 0 -146 32.5t-100.5 91.5t-36.5 137q0 79 36.5 137.5t100.5 91t146 32.5q62 0 112.5 -19t89 -50t64.5 -66.5t39 -69.5t13 -59q0 -35 -20.5 -79t-60.5 -85t-99.5 -67.5t-137.5 -26.5zM398 239q50 0 87 24t59 69q-23 46 -60 69.5t-86 23.5q-35 0 -61.5 -10.5
t-41 -31.5t-14.5 -51q0 -29 14 -50t40.5 -32t62.5 -11zM850 788q49 0 93.5 -6.5t81.5 -15.5v-172q-25 8 -57.5 13.5t-67.5 5.5q-57 0 -83.5 -24t-26.5 -77v-359q0 -103 -51 -178.5t-144 -116.5t-221 -41q-82 0 -151.5 21t-140.5 61v185q62 -45 132.5 -66.5t143.5 -21.5
q86 0 132 33t46 118v95l8 28v124l-8 2v115q0 146 76.5 211.5t237.5 65.5z" />
    <glyph glyph-name="uni0261" unicode="&#x261;" horiz-adv-x="836" 
d="M536 147v95l8 28v161l-8 21v123h254v-422q0 -103 -51 -178.5t-144 -116.5t-221 -41q-82 0 -151.5 21t-140.5 61v185q62 -45 132.5 -66.5t143.5 -21.5q86 0 132 33t46 118zM309 71q-82 0 -146 32.5t-100.5 91.5t-36.5 137q0 79 36.5 137.5t100.5 91t146 32.5
q62 0 112.5 -19t89 -50t64.5 -66.5t39 -69.5t13 -59q0 -35 -20.5 -79t-60.5 -85t-99.5 -67.5t-137.5 -26.5zM398 239q50 0 87 24t59 69q-23 46 -60 69.5t-86 23.5q-35 0 -61.5 -10.5t-41 -31.5t-14.5 -51q0 -29 14 -50t40.5 -32t62.5 -11z" />
    <glyph glyph-name="uni0263" unicode="&#x263;" horiz-adv-x="820" 
d="M410 -183q-107 0 -166 42t-59 114q0 39 13.5 71t38 64t58.5 70l-7 -106l-284 503h273l152 -322h-34l155 322h266l-268 -475l-23 78q34 -38 58.5 -70t38 -64t13.5 -71q0 -72 -59 -114t-166 -42zM410 -40q18 0 27 9t9 22t-8 28t-20.5 32.5t-26.5 34.5h38
q-14 -17 -26.5 -34.5t-20.5 -32.5t-8 -28t9 -22t27 -9z" />
    <glyph glyph-name="uni0264" unicode="&#x264;" horiz-adv-x="820" 
d="M410 -183q-107 0 -166 42t-59 114q0 39 13.5 71t38 64t58.5 70l-7 -106l-284 503h273l152 -322h-34l155 322h266l-268 -475l-23 78q34 -38 58.5 -70t38 -64t13.5 -71q0 -72 -59 -114t-166 -42zM410 -40q18 0 27 9t9 22t-8 28t-20.5 32.5t-26.5 34.5h38
q-14 -17 -26.5 -34.5t-20.5 -32.5t-8 -28t9 -22t27 -9z" />
    <glyph glyph-name="uni0265" unicode="&#x265;" horiz-adv-x="797" 
d="M749 -165h-254v740h254v-740zM301 -18q-82 0 -140.5 33.5t-89 94t-30.5 141.5v324h254v-288q0 -48 25 -74t71 -26q33 0 56.5 13.5t35.5 39t12 61.5l75 -38q-13 -94 -52.5 -156.5t-95.5 -93.5t-121 -31z" />
    <glyph glyph-name="uni0266" unicode="&#x266;" horiz-adv-x="807" 
d="M501 549q84 0 143 -33.5t90.5 -94t31.5 -141.5v-280h-254v244q0 48 -26.5 74t-74.5 26q-34 0 -58.5 -13.5t-37.5 -39t-13 -61.5l-75 38q14 94 54 156.5t97 93.5t123 31zM48 511q0 146 76.5 211.5t237.5 65.5q49 0 93.5 -6.5t81.5 -15.5v-172q-25 8 -57.5 13.5t-67.5 5.5
q-57 0 -83.5 -24t-26.5 -77v-512h-254v511z" />
    <glyph glyph-name="uni0267" unicode="&#x267;" horiz-adv-x="806" 
d="M48 511q0 146 76.5 211.5t237.5 65.5q49 0 93.5 -6.5t81.5 -15.5v-172q-25 8 -57.5 13.5t-67.5 5.5q-57 0 -83.5 -24t-26.5 -77v-512h-254v511zM501 549q84 0 143 -33.5t90.5 -94t31.5 -141.5v-190q0 -134 -63.5 -203.5t-203.5 -69.5q-36 0 -76.5 4.5t-72.5 14.5v187
q17 -5 38.5 -9t45.5 -4q47 0 62.5 25t15.5 70v139q0 48 -26.5 74t-74.5 26q-34 0 -58.5 -13.5t-37.5 -39t-13 -61.5l-75 38q14 94 54 156.5t97 93.5t123 31z" />
    <glyph glyph-name="uni0268" unicode="&#x268;" horiz-adv-x="422" 
d="M19 428h384v-146h-384v146zM84 587l127 -26l127 26v-587h-254v587zM211 617q-64 0 -103 31t-39 85t39 85t103 31q65 0 103.5 -31t38.5 -85t-38.5 -85t-103.5 -31z" />
    <glyph glyph-name="uni0269" unicode="&#x269;" horiz-adv-x="465" 
d="M297 575v-356q0 -28 17.5 -40t49.5 -12q27 0 46.5 6.5t41.5 16.5v-190q-30 -9 -63.5 -13.5t-68.5 -4.5q-90 0 -151.5 27t-93.5 77.5t-32 118.5v370h254z" />
    <glyph glyph-name="uni026A" unicode="&#x26a;" horiz-adv-x="650" 
d="M198 0v557h254v-557h-254zM35 0v146h580v-146h-580zM35 429v146h580v-146h-580z" />
    <glyph glyph-name="uni026C" unicode="&#x26c;" horiz-adv-x="674" 
d="M172 590q68 0 112.5 -28.5t67 -74t22.5 -97.5v-128h-93v136q0 47 -22.5 70.5t-58.5 23.5q-27 0 -41.5 -12.5t-14.5 -34.5q0 -25 18.5 -39.5t59.5 -14.5q27 0 59 5.5t66 12.5l95 28q49 14 104.5 36.5t117.5 56.5v-134q-55 -25 -108.5 -45t-106.5 -35l-89 -22
q-34 -6 -69.5 -10.5t-71.5 -4.5q-103 0 -159.5 41t-56.5 117q0 67 43.5 110t125.5 43zM253 770h254v-770h-254v770z" />
    <glyph glyph-name="uni026F" unicode="&#x26f;" horiz-adv-x="1244" 
d="M1223 0h-254l-40 245v330h254v-369zM740 -18q-81 0 -138 33.5t-87 94t-30 141.5v324h254v-288q0 -48 24 -74t67 -26q32 0 54 13.5t33.5 39t11.5 61.5l75 -38q-14 -94 -52.5 -156.5t-93 -93.5t-118.5 -31zM297 -18q-81 0 -138 33.5t-87.5 94t-30.5 141.5v324h254v-288
q0 -48 24 -74t67 -26q32 0 54 13.5t33.5 39t11.5 61.5l75 -38q-14 -94 -52 -156.5t-92.5 -93.5t-118.5 -31z" />
    <glyph glyph-name="uni0271" unicode="&#x271;" horiz-adv-x="1244" 
d="M21 575h254l40 -245v-330h-254v369zM504 593q81 0 138 -33.5t87 -94t30 -141.5v-324h-254v288q0 48 -23.5 74t-67.5 26q-31 0 -53.5 -13.5t-34 -39t-11.5 -61.5l-75 38q14 94 52.5 156.5t93.5 93.5t118 31zM1203 324v-234q0 -134 -63.5 -203.5t-203.5 -69.5
q-36 0 -76.5 4.5t-72.5 14.5v187q17 -5 38.5 -9t45.5 -4q47 0 62.5 25t15.5 70v183q0 48 -23.5 74t-67.5 26q-31 0 -53.5 -13.5t-34 -39t-11.5 -61.5l-75 38q14 94 52 156.5t93 93.5t118 31q81 0 138.5 -33.5t87.5 -94t30 -141.5z" />
    <glyph glyph-name="uni0272" unicode="&#x272;" horiz-adv-x="820" 
d="M514 593q84 0 143 -33.5t90.5 -94t31.5 -141.5v-324h-254v288q0 48 -26.5 74t-74.5 26q-34 0 -58.5 -13.5t-37.5 -39t-13 -61.5l-75 38q14 94 54 156.5t97 93.5t123 31zM21 575h254l40 -245v-261q0 -127 -59.5 -189.5t-187.5 -62.5q-48 0 -84.5 8t-62.5 18v157
q16 -6 35 -10.5t40 -4.5q34 0 49.5 17t15.5 52v315z" />
    <glyph glyph-name="uni0275" unicode="&#x275;" horiz-adv-x="810" 
d="M129 360h551v-146h-551v146zM405 -18q-114 0 -199.5 38t-133 107t-47.5 160q0 92 47.5 161t133 107t199.5 38t199.5 -38t133 -107t47.5 -161q0 -91 -47.5 -160t-133 -107t-199.5 -38zM405 167q40 0 67.5 14t42 41t14.5 65q0 39 -14.5 66t-42 41t-67.5 14q-39 0 -67 -14
t-42.5 -41t-14.5 -65q0 -39 14.5 -66t42.5 -41t67 -14z" />
    <glyph glyph-name="uni0278" unicode="&#x278;" horiz-adv-x="1036" 
d="M392 770h252v-935h-252v935zM405 165v-183q-114 0 -199.5 38t-133 107t-47.5 160q0 92 47.5 161t133 107t199.5 38v-183q-39 0 -67 -14.5t-42.5 -42t-14.5 -66.5t14.5 -66t42.5 -41.5t67 -14.5zM631 165q40 0 67.5 14.5t42 41.5t14.5 66t-14.5 66.5t-42 42t-67.5 14.5
v183q114 0 199.5 -38t133 -107t47.5 -161q0 -91 -47.5 -160t-133 -107t-199.5 -38v183z" />
    <glyph glyph-name="uni027D" unicode="&#x27d;" horiz-adv-x="585" 
d="M315 221v-116q0 -45 16 -70t62 -25q24 0 45.5 4t38.5 9v-187q-32 -10 -72.5 -14.5t-76.5 -4.5q-140 0 -203.5 69.5t-63.5 203.5v285l-40 200h260l25 -147q25 72 70.5 118.5t126.5 46.5q15 0 31 -1.5t35 -4.5v-215q-34 6 -61 8.5t-48 2.5q-38 0 -71 -13.5t-53.5 -48.5
t-20.5 -100z" />
    <glyph glyph-name="uni027E" unicode="&#x27e;" horiz-adv-x="470" 
d="M309 594q36 0 76.5 -4.5t72.5 -14.5v-187q-17 5 -38.5 9t-45.5 4q-46 0 -62 -25t-16 -70v-306h-254v321q0 134 63.5 203.5t203.5 69.5z" />
    <glyph glyph-name="uni0283" unicode="&#x283;" horiz-adv-x="481" 
d="M502 788q43 0 80.5 -5.5t80.5 -16.5v-169q-28 7 -57 11t-56 4q-61 0 -89.5 -23.5t-28.5 -73.5v-425q0 -90 -37 -151t-107.5 -91.5t-171.5 -30.5q-39 0 -70 5.5t-69 16.5v182q26 -8 53 -13t55 -5q57 0 75 19t18 58v435q0 91 38 151.5t110.5 91t175.5 30.5z" />
    <glyph glyph-name="uni0284" unicode="&#x284;" horiz-adv-x="545" 
d="M20 246h394v-146h-394v146zM411 788q44 0 80 -5.5t79 -16.5v-182q-31 8 -62.5 13t-65.5 5q-63 0 -83 -19t-20 -58v-690h-254v680q0 91 38 151.5t111 91t177 30.5z" />
    <glyph glyph-name="uni0288" unicode="&#x288;" horiz-adv-x="606" 
d="M384 390v-289q0 -45 16 -70t62 -25q24 0 45.5 4t38.5 9v-183q-32 -10 -72.5 -14.5t-76.5 -4.5q-140 0 -203.5 69.5t-63.5 203.5v300h-113v109l113 57l111 176h143v-157h225v-185h-225z" />
    <glyph glyph-name="uni0289" unicode="&#x289;" horiz-adv-x="914" 
d="M353 -17q-81 0 -139 33.5t-88.5 94t-30.5 140.5v324h254v-288q0 -47 24.5 -73t69.5 -26q35 0 57.5 12.5t34 38t11.5 62.5l75 -38q-13 -93 -52 -155.5t-95 -93.5t-121 -31zM586 0l-40 245v330h254v-369l40 -206h-254zM25 428h864v-146h-864v146z" />
    <glyph glyph-name="uni028A" unicode="&#x28a;" horiz-adv-x="848" 
d="M424 -17q-108 0 -192.5 31t-133.5 91t-49 145q0 83 61.5 147t202.5 93l-45 -79h-237v164h342v-123q-38 -21 -62.5 -60t-24.5 -91q0 -58 38 -96t100 -38q42 0 73 17.5t48 47.5t17 69q0 52 -24.5 91t-62.5 60v123h342v-164h-237l-45 79q141 -29 202.5 -93t61.5 -147
q0 -85 -49 -145t-133.5 -91t-192.5 -31z" />
    <glyph glyph-name="uni028B" unicode="&#x28b;" horiz-adv-x="824" 
d="M798 352q0 -80 -31 -147.5t-86.5 -117t-130 -77t-162.5 -27.5q-126 0 -203 39.5t-111.5 111.5t-34.5 169v272h254v-271q0 -61 26 -93.5t87 -32.5q30 0 55 9t43 27t28 43t10 56q0 41 -22.5 68t-72.5 27q-19 0 -36 -3.5t-30 -8.5v177q26 7 63.5 13.5t86.5 6.5
q128 0 197.5 -60.5t69.5 -180.5z" />
    <glyph glyph-name="uni028C" unicode="&#x28c;" horiz-adv-x="806" 
d="M258 575h290l261 -575h-280l-170 452h83l-175 -452h-270z" />
    <glyph glyph-name="uni028E" unicode="&#x28e;" horiz-adv-x="811" 
d="M548 758q72 0 126.5 -17t108.5 -58v-170q-53 34 -98.5 48.5t-98.5 14.5q-42 0 -73.5 -17.5t-51.5 -67.5l-195 -491h-270l262 567q34 73 81 114.5t101.5 59t107.5 17.5zM580 498l231 -498h-280l-193 498h242z" />
    <glyph glyph-name="uni0292" unicode="&#x292;" horiz-adv-x="781" 
d="M60 575h647v-174l-339 -191l-20 72h101q111 0 179 -31t99 -81.5t31 -110.5q0 -71 -43 -126t-127.5 -85.5t-209.5 -30.5q-118 0 -201.5 35t-127.5 96t-47 137h239q6 -37 39 -63t98 -26q59 0 91.5 22t32.5 56q0 20 -12.5 36.5t-40 26.5t-72.5 10h-135v151l355 204l18 -105
h-555v178z" />
    <glyph glyph-name="uni0294" unicode="&#x294;" horiz-adv-x="718" 
d="M225 238q0 65 23 105t61 65l92 61q32 21 44 35t12 36q0 32 -22 47.5t-69 15.5q-58 0 -86.5 -22.5t-35.5 -65.5h-249q8 126 103 199.5t271 73.5q106 0 183 -28t119 -81.5t42 -131.5q0 -60 -23.5 -106t-78.5 -84l-98 -68q-19 -13 -26.5 -31t-7.5 -49v-209h-254v238z" />
    <glyph glyph-name="uni0295" unicode="&#x295;" horiz-adv-x="715" 
d="M493 238v-238h-254v209q0 31 -7.5 49t-26.5 31l-98 68q-55 38 -78.5 84t-23.5 106q0 78 42 131.5t119 81.5t183 28q176 0 271 -73.5t103 -199.5h-249q-7 43 -35 65.5t-87 22.5q-47 0 -69 -15.5t-22 -47.5q0 -22 12 -36t44 -35l92 -61q38 -25 61 -65t23 -105z" />
    <glyph glyph-name="uni0298" unicode="&#x298;" horiz-adv-x="958" 
d="M479 -18q-135 0 -236.5 50.5t-157.5 141t-56 211.5t56 211.5t157.5 141t236.5 50.5t236 -50.5t157.5 -141t56.5 -211.5t-56.5 -211.5t-157.5 -141t-236 -50.5zM479 167q61 0 104 26t66.5 75t23.5 117t-23.5 117t-66.5 75t-104 26q-60 0 -103.5 -26t-67 -75t-23.5 -117
t23.5 -117t67 -75t103.5 -26zM479 268q-49 0 -83 34t-34 83q0 50 34 83.5t83 33.5q50 0 83.5 -33.5t33.5 -83.5q0 -49 -33.5 -83t-83.5 -34z" />
    <glyph glyph-name="uni029D" unicode="&#x29d;" horiz-adv-x="633" 
d="M250 -183q-81 0 -138 28t-87 77t-30 110q0 65 30 110.5t81.5 70t117.5 24.5q60 0 115.5 -10.5t105 -28.5t90.5 -40t72 -45v-164q-37 35 -87 63t-103.5 47.5t-101 29.5t-80.5 10q-37 0 -53.5 -17t-16.5 -42q0 -22 13 -36t41 -14q29 0 43 15.5t14 44.5v531l127 -26l127 26
v-500q0 -87 -36 -146t-99 -88.5t-145 -29.5zM403 617q-64 0 -103 31t-39 85t39 85t103 31q65 0 103.5 -31t38.5 -85t-38.5 -85t-103.5 -31z" />
    <glyph glyph-name="uni02A7" unicode="&#x2a7;" horiz-adv-x="943" 
d="M7 390v109l113 57l111 176h143v-157h364v-185h-364v-97q0 -55 18 -77.5t74 -22.5q26 0 49 5.5t45 13.5v-182q-31 -10 -67 -17.5t-86 -7.5q-97 0 -161 30.5t-95 88.5t-31 138v128h-113zM964 788q43 0 80.5 -5.5t80.5 -16.5v-169q-28 7 -57 11t-56 4q-61 0 -89.5 -23.5
t-28.5 -73.5v-425q0 -90 -37 -151t-108.5 -91.5t-174.5 -30.5q-32 0 -64.5 3t-70.5 9v146h23.5t22.5 1q84 5 119.5 34.5t35.5 96.5v408q0 91 38 151.5t110.5 91t175.5 30.5z" />
    <glyph glyph-name="uni02B0" unicode="&#x2b0;" horiz-adv-x="638" 
d="M41 881h194v-601h-194v601zM391 742q98 0 152 -57.5t54 -152.5v-252h-194v225q0 38 -21 59t-60 21q-41 0 -64 -24t-23 -67l-58 29q11 73 42 121.5t75.5 73t96.5 24.5z" />
    <glyph glyph-name="uni02B1" unicode="&#x2b1;" horiz-adv-x="638" 
d="M391 709q98 0 152 -57.5t54 -152.5v-219h-194v192q0 38 -21 59.5t-60 21.5q-41 0 -64 -24.5t-23 -67.5l-58 29q11 73 42 121.5t76 73t96 24.5zM41 680q0 113 59 164t184 51q35 0 71.5 -5t64.5 -13v-132q-19 6 -44.5 10.5t-53.5 4.5q-45 0 -66 -19t-21 -61v-400h-194v400z
" />
    <glyph glyph-name="uni02B2" unicode="&#x2b2;" horiz-adv-x="286" 
d="M46 733l97 -20l97 20v-582h-194v582zM143 762q-49 0 -79 24t-30 65t30 65t79 24q50 0 79.5 -24t29.5 -65t-30 -65t-79 -24z" />
    <glyph glyph-name="uni02B3" unicode="&#x2b3;" horiz-adv-x="407" 
d="M10 728h198l27 -158v-290h-194v293zM434 737v-164q-25 5 -46 7t-38 2q-30 0 -56.5 -11t-42.5 -38.5t-16 -78.5l-35 43q11 64 29.5 120t54.5 90.5t98 34.5q14 0 26.5 -1.5t25.5 -3.5z" />
    <glyph glyph-name="uni02B7" unicode="&#x2b7;" horiz-adv-x="819" 
d="M615 392h-58l106 336h194l-155 -448h-198l-125 354h61l-125 -354h-198l-155 448h194l105 -336h-57l114 336h182z" />
    <glyph glyph-name="uni02B8" unicode="&#x2b8;" horiz-adv-x="565" 
d="M209 138q-53 0 -95.5 13t-85.5 45v130q44 -28 79 -38.5t73 -10.5q33 0 57 14t40 53l155 384h206l-206 -443q-26 -55 -62.5 -87.5t-77.5 -46t-83 -13.5zM187 338l-181 390h214l152 -390h-185z" />
    <glyph glyph-name="uni02B9" unicode="&#x2b9;" horiz-adv-x="340" 
d="M44 750h252l-51 -379h-150z" />
    <glyph glyph-name="uni02BB" unicode="&#x2bb;" horiz-adv-x="292" 
d="M264 918l-112 -171l-10 69q59 0 94.5 -25.5t35.5 -72.5q0 -46 -35.5 -71.5t-94.5 -25.5t-94 26t-35 72q0 32 17.5 58.5t53.5 67.5l64 73h116z" />
    <glyph glyph-name="uni02BC" unicode="&#x2bc;" horiz-adv-x="323" 
d="M44 355l112 234l16 -94q-38 0 -69 18t-49 48.5t-18 67.5t18 67t49 48t69 18t68.5 -18t48.5 -48.5t18 -68.5q0 -34 -17.5 -74t-59.5 -99l-70 -99h-116z" />
    <glyph glyph-name="uni02BE" unicode="&#x2be;" horiz-adv-x="260" 
d="M36 760q62 0 109 -22.5t74 -61.5t27 -91q0 -51 -27 -90.5t-74 -62t-109 -22.5v111q38 0 58 16.5t20 47.5q0 32 -20 48t-58 16v111z" />
    <glyph glyph-name="uni02BF" unicode="&#x2bf;" horiz-adv-x="260" 
d="M224 760v-111q-38 0 -58 -16t-20 -48q0 -31 20 -47.5t58 -16.5v-111q-61 0 -108.5 22.5t-74.5 62t-27 90.5q0 52 27 91t74.5 61.5t108.5 22.5z" />
    <glyph glyph-name="uni02C0" unicode="&#x2c0;" horiz-adv-x="362" 
d="M39 466q0 51 17.5 81.5t47.5 50.5l72 48q25 17 34.5 27.5t9.5 28.5q0 26 -18 38.5t-55 12.5q-44 0 -68 -17t-30 -54h-190q7 98 80.5 155.5t209.5 57.5q123 0 195 -48.5t72 -138.5q0 -46 -18.5 -82.5t-61.5 -65.5l-76 -53q-15 -10 -21 -24.5t-6 -38.5v-164h-194v186z" />
    <glyph glyph-name="uni02C1" unicode="&#x2c1;" horiz-adv-x="362" 
d="M323 466v-186h-194v164q0 23 -6 38t-21 25l-76 53q-43 30 -61.5 66t-18.5 82q0 90 72 138.5t195 48.5q136 0 209.5 -57.5t80.5 -155.5h-191q-5 35 -27.5 53t-69.5 18q-38 0 -55.5 -12.5t-17.5 -38.5q0 -17 9.5 -28t34.5 -28l72 -48q28 -19 46.5 -49t18.5 -83z" />
    <glyph glyph-name="circumflex" unicode="&#x2c6;" horiz-adv-x="582" 
d="M163 827h256l143 -200h-195l-136 144h120l-136 -144h-195z" />
    <glyph glyph-name="caron" unicode="&#x2c7;" horiz-adv-x="582" 
d="M419 627h-256l-143 200h195l136 -144h-120l136 144h195z" />
    <glyph glyph-name="uni02C8" unicode="&#x2c8;" horiz-adv-x="320" 
d="M49 750h222v-379h-222v379z" />
    <glyph glyph-name="uni02C9" unicode="&#x2c9;" horiz-adv-x="544" 
d="M29 642v147h524v-147h-524z" />
    <glyph glyph-name="breve" unicode="&#x2d8;" horiz-adv-x="570" 
d="M20 827h183q7 -28 28.5 -44t53.5 -16t53.5 16t28.5 44h183q-16 -97 -84 -153.5t-181 -56.5t-180.5 56.5t-84.5 153.5z" />
    <glyph glyph-name="dotaccent" unicode="&#x2d9;" horiz-adv-x="354" 
d="M177 617q-64 0 -103 31t-39 85t39 85t103 31q65 0 103.5 -31t38.5 -85t-38.5 -85t-103.5 -31z" />
    <glyph glyph-name="ring" unicode="&#x2da;" horiz-adv-x="460" 
d="M230 617q-99 0 -154.5 40t-55.5 111q0 70 55.5 109.5t154.5 39.5t154.5 -39.5t55.5 -109.5q0 -71 -55.5 -111t-154.5 -40zM230 713q35 0 54 14.5t19 39.5q0 26 -19 40t-54 14q-34 0 -53.5 -14t-19.5 -40q0 -25 19.5 -39.5t53.5 -14.5z" />
    <glyph glyph-name="ogonek" unicode="&#x2db;" horiz-adv-x="333" 
d="M215 22l75 -10v-12h23q-38 -9 -65 -20t-40.5 -21.5t-13.5 -21.5q0 -26 62 -26q17 0 30.5 2t26.5 5v-124q-13 -5 -48 -10.5t-73 -5.5q-77 0 -124.5 27t-47.5 71q0 52 49.5 88t145.5 58z" />
    <glyph glyph-name="tilde" unicode="&#x2dc;" horiz-adv-x="571" 
d="M20 627q5 95 43 150t116 55q28 0 54 -7t48.5 -16.5t42.5 -17t36 -7.5q20 0 33.5 12t17.5 34h140q-4 -95 -42.5 -150t-116.5 -55q-28 0 -54 7.5t-48.5 17t-42.5 16.5t-36 7q-20 0 -33.5 -12t-17.5 -34h-140z" />
    <glyph glyph-name="hungarumlaut" unicode="&#x2dd;" horiz-adv-x="656" 
d="M135 827h219l-127 -200h-207zM417 827h219l-127 -200h-207z" />
    <glyph glyph-name="uni02E1" unicode="&#x2e1;" horiz-adv-x="276" 
d="M41 881h194v-601h-194v601z" />
    <glyph glyph-name="uni02E2" unicode="&#x2e2;" horiz-adv-x="623" 
d="M596 432q0 -55 -34.5 -92t-97 -55.5t-146.5 -18.5q-86 0 -151.5 20.5t-103 58t-40.5 87.5h197q8 -23 35 -34.5t73 -11.5q38 0 58.5 7.5t20.5 21.5q0 13 -16.5 19.5t-54.5 8.5l-74 5q-120 8 -173.5 40.5t-53.5 96.5q0 80 73.5 118.5t194.5 38.5q79 0 140.5 -20t99 -55.5
t43.5 -83.5h-197q-7 21 -30 34t-64 13q-36 0 -53.5 -8.5t-17.5 -22.5q0 -13 10.5 -18t41.5 -7l99 -7q87 -6 135 -23t67 -45t19 -67z" />
    <glyph glyph-name="uni02E3" unicode="&#x2e3;" horiz-adv-x="619" 
d="M0 280l202 248v-44l-190 244h212l111 -139h-49l110 139h212l-200 -247l-11 66l222 -267h-219l-119 148h53l-118 -148h-216z" />
    <glyph glyph-name="gravecomb" unicode="&#x300;" 
d="M264 827l128 -200h-232l-140 200h244z" />
    <glyph glyph-name="acutecomb" unicode="&#x301;" 
d="M148 827h244l-140 -200h-232z" />
    <glyph glyph-name="uni0302" unicode="&#x302;" 
d="M163 827h256l143 -200h-195l-136 144h120l-136 -144h-195z" />
    <glyph glyph-name="tildecomb" unicode="&#x303;" 
d="M20 627q5 95 43 150t116 55q28 0 54 -7t48.5 -16.5t42.5 -17t36 -7.5q20 0 33.5 12t17.5 34h140q-4 -95 -42.5 -150t-116.5 -55q-28 0 -54 7.5t-48.5 17t-42.5 16.5t-36 7q-20 0 -33.5 -12t-17.5 -34h-140z" />
    <glyph glyph-name="uni0304" unicode="&#x304;" 
d="M29 642v147h524v-147h-524z" />
    <glyph glyph-name="uni0306" unicode="&#x306;" 
d="M20 827h183q7 -28 28.5 -44t53.5 -16t53.5 16t28.5 44h183q-16 -97 -84 -153.5t-181 -56.5t-180.5 56.5t-84.5 153.5z" />
    <glyph glyph-name="uni0307" unicode="&#x307;" 
d="M177 617q-64 0 -103 31t-39 85t39 85t103 31q65 0 103.5 -31t38.5 -85t-38.5 -85t-103.5 -31z" />
    <glyph glyph-name="uni0308" unicode="&#x308;" 
d="M167 617q-60 0 -95.5 29t-35.5 82q0 50 35.5 78.5t95.5 28.5t95.5 -28.5t35.5 -78.5q0 -53 -35.5 -82t-95.5 -29zM481 617q-60 0 -95.5 29t-35.5 82q0 50 35.5 78.5t95.5 28.5t95.5 -28.5t35.5 -78.5q0 -53 -35.5 -82t-95.5 -29z" />
    <glyph glyph-name="hookabovecomb" unicode="&#x309;" 
d="M126 613l-43 61q26 11 40 21.5t14 22.5t-14 18.5t-40 6.5q-17 0 -33 -2t-30 -5v130q21 6 56 11.5t75 5.5q88 0 137 -29.5t49 -82.5t-48.5 -92.5t-162.5 -65.5z" />
    <glyph glyph-name="uni030A" unicode="&#x30a;" 
d="M230 617q-99 0 -154.5 40t-55.5 111q0 70 55.5 109.5t154.5 39.5t154.5 -39.5t55.5 -109.5q0 -71 -55.5 -111t-154.5 -40zM230 713q35 0 54 14.5t19 39.5q0 26 -19 40t-54 14q-34 0 -53.5 -14t-19.5 -40q0 -25 19.5 -39.5t53.5 -14.5z" />
    <glyph glyph-name="uni030B" unicode="&#x30b;" 
d="M135 827h219l-127 -200h-207zM417 827h219l-127 -200h-207z" />
    <glyph glyph-name="uni030C" unicode="&#x30c;" 
d="M419 627h-256l-143 200h195l136 -144h-120l136 144h195z" />
    <glyph glyph-name="uni030D" unicode="&#x30d;" 
d="M80 847h198v-220h-198v220z" />
    <glyph glyph-name="uni030F" unicode="&#x30f;" 
d="M521 827l115 -200h-207l-127 200h219zM239 827l115 -200h-207l-127 200h219z" />
    <glyph glyph-name="uni0311" unicode="&#x311;" 
d="M550 627h-183q-7 29 -28.5 44.5t-53.5 15.5t-53.5 -15.5t-28.5 -44.5h-183q17 98 84.5 154t180.5 56t181 -56t84 -154z" />
    <glyph glyph-name="uni0312" unicode="&#x312;" 
d="M277 914l-112 -171l-10 69q59 0 94.5 -25.5t35.5 -72.5q0 -46 -35.5 -71.5t-94.5 -25.5t-94 26t-35 72q0 32 17.5 58.5t53.5 67.5l64 73h116z" />
    <glyph glyph-name="uni0313" unicode="&#x313;" 
d="M34 627l112 171l10 -69q-59 0 -94.5 26t-35.5 72t35.5 71.5t94.5 25.5t94 -25.5t35 -72.5q0 -31 -17.5 -58t-53.5 -68l-64 -73h-116z" />
    <glyph glyph-name="uni0315" unicode="&#x315;" 
d="M34 627l112 171l10 -69q-59 0 -94.5 26t-35.5 72t35.5 71.5t94.5 25.5t94 -25.5t35 -72.5q0 -31 -17.5 -58t-53.5 -68l-64 -73h-116z" />
    <glyph glyph-name="uni031B" unicode="&#x31b;" 
d="M271 586q0 -71 -60.5 -111.5t-168.5 -40.5h-11h-11v135h2h1q26 0 41 14.5t15 37.5q0 17 -7.5 36t-23.5 42h186q37 -57 37 -113z" />
    <glyph glyph-name="uni0320" unicode="&#x320;" 
d="M29 -210v147h524v-147h-524z" />
    <glyph glyph-name="dotbelowcomb" unicode="&#x323;" 
d="M177 -274q-64 0 -103 31t-39 85t39 85t103 31q65 0 103.5 -31t38.5 -85t-38.5 -85t-103.5 -31z" />
    <glyph glyph-name="uni0324" unicode="&#x324;" 
d="M167 -260q-60 0 -95.5 29t-35.5 82q0 50 35.5 78.5t95.5 28.5t95.5 -28.5t35.5 -78.5q0 -53 -35.5 -82t-95.5 -29zM481 -260q-60 0 -95.5 29t-35.5 82q0 50 35.5 78.5t95.5 28.5t95.5 -28.5t35.5 -78.5q0 -53 -35.5 -82t-95.5 -29z" />
    <glyph glyph-name="uni0325" unicode="&#x325;" 
d="M230 -342q-99 0 -154.5 40t-55.5 111q0 70 55.5 109.5t154.5 39.5t154.5 -39.5t55.5 -109.5q0 -71 -55.5 -111t-154.5 -40zM230 -246q35 0 54 14.5t19 39.5q0 26 -19 40t-54 14q-34 0 -53.5 -14t-19.5 -40q0 -25 19.5 -39.5t53.5 -14.5z" />
    <glyph glyph-name="uni0326" unicode="&#x326;" 
d="M28 -339l112 171l10 -69q-59 0 -94.5 26t-35.5 72t35.5 71.5t94.5 25.5t94 -25.5t35 -72.5q0 -31 -17.5 -58t-53.5 -68l-64 -73h-116z" />
    <glyph glyph-name="uni0327" unicode="&#x327;" 
d="M166 22h116l-60 -91l-57 4q25 11 54 18t64 7q71 0 108.5 -26.5t37.5 -73.5q0 -50 -49.5 -83.5t-147.5 -33.5q-85 0 -140.5 30.5t-71.5 84.5h140q6 -10 23 -17.5t49 -7.5t48 9.5t16 22.5t-12.5 22t-41.5 9q-12 0 -24.5 -2t-22.5 -7h-117z" />
    <glyph glyph-name="uni0328" unicode="&#x328;" 
d="M215 22l75 -10v-12h23q-38 -9 -65 -20t-40.5 -21.5t-13.5 -21.5q0 -26 62 -26q17 0 30.5 2t26.5 5v-124q-13 -5 -48 -10.5t-73 -5.5q-77 0 -124.5 27t-47.5 71q0 52 49.5 88t145.5 58z" />
    <glyph glyph-name="uni0329" unicode="&#x329;" 
d="M80 -42h198v-220h-198v220z" />
    <glyph glyph-name="uni032D" unicode="&#x32d;" 
d="M163 -42h256l143 -200h-195l-136 144h120l-136 -144h-195z" />
    <glyph glyph-name="uni032E" unicode="&#x32e;" 
d="M20 -42h183q7 -28 28.5 -44t53.5 -16t53.5 16t28.5 44h183q-16 -97 -84 -153.5t-181 -56.5t-180.5 56.5t-84.5 153.5z" />
    <glyph glyph-name="uni032F" unicode="&#x32f;" 
d="M550 -252h-183q-7 29 -28.5 44.5t-53.5 15.5t-53.5 -15.5t-28.5 -44.5h-183q17 98 84.5 154t180.5 56t181 -56t84 -154z" />
    <glyph glyph-name="uni0330" unicode="&#x330;" 
d="M20 -242q5 95 43 150t116 55q28 0 54 -7t48.5 -16.5t42.5 -17t36 -7.5q20 0 33.5 12t17.5 34h140q-4 -95 -42.5 -150t-116.5 -55q-28 0 -54 7.5t-48.5 17t-42.5 16.5t-36 7q-20 0 -33.5 -12t-17.5 -34h-140z" />
    <glyph glyph-name="uni0331" unicode="&#x331;" 
d="M29 -210v147h524v-147h-524z" />
    <glyph glyph-name="uni0332" unicode="&#x332;" 
d="M-4 -143h570v-168h-570v168z" />
    <glyph glyph-name="uni0335" unicode="&#x335;" 
d="M25 363h484v-146h-484v146z" />
    <glyph glyph-name="uni035C" unicode="&#x35c;" 
d="M480 -272q-131 0 -228.5 29t-160 78.5t-91.5 112.5h207q18 -14 52 -29t88.5 -25t132.5 -10q79 0 133 10t88 25t52 29h207q-28 -63 -91 -112.5t-160 -78.5t-229 -29z" />
    <glyph glyph-name="uni035D" unicode="&#x35d;" 
d="M480 618q-131 0 -228.5 29t-160 78.5t-91.5 112.5h207q18 -14 52 -29t88.5 -25t132.5 -10q79 0 133 10t88 25t52 29h207q-28 -63 -91 -112.5t-160 -78.5t-229 -29z" />
    <glyph glyph-name="uni0361" unicode="&#x361;" 
d="M480 847q132 0 229 -28.5t160 -78.5t91 -113h-207q-18 14 -52 29t-88 25t-133 10q-78 0 -132.5 -10t-88.5 -25t-52 -29h-207q29 63 91.5 113t160 78.5t228.5 28.5z" />
    <glyph glyph-name="Beta" unicode="&#x392;" horiz-adv-x="907" 
d="M604 364l20 46q85 -3 142 -27t85.5 -66.5t28.5 -101.5q0 -61 -27.5 -110t-83.5 -77t-140 -28h-589l57 385l-57 365h568q104 0 163 -48.5t59 -134.5q0 -49 -22 -92t-71.5 -72.5t-132.5 -38.5zM292 56l-98 115h353q33 0 52 17.5t19 47.5q0 27 -18.5 46t-54.5 19h-296v168
h258q26 0 43.5 16t17.5 41q0 23 -16 38t-45 15h-312l97 115l51 -309z" />
    <glyph glyph-name="Epsilon" unicode="&#x395;" horiz-adv-x="812" 
d="M729 464v-178h-565v178h565zM341 375l-46 -279l-98 108h569v-204h-726l55 375l-55 375h721v-204h-564l98 108z" />
    </font>
</defs>
</svg>
